<?xml version="1.0" standalone="no"?>
<!DOCTYPE svg PUBLIC "-//W3C//DTD SVG 1.1//EN" "http://www.w3.org/Graphics/SVG/1.1/DTD/svg11.dtd" >
<svg xmlns="http://www.w3.org/2000/svg">
<metadata></metadata>
<defs>
<font id="colaboratelightregular" horiz-adv-x="488" >
<font-face units-per-em="1000" ascent="800" descent="-200" />
<missing-glyph horiz-adv-x="244" />
<glyph horiz-adv-x="1000" />
<glyph horiz-adv-x="1000" />
<glyph unicode="&#xd;" horiz-adv-x="1000" />
<glyph unicode=" "  horiz-adv-x="244" />
<glyph unicode="&#x09;" horiz-adv-x="244" />
<glyph unicode="&#xa0;" horiz-adv-x="244" />
<glyph unicode="!" horiz-adv-x="244" d="M82 0v84h80v-84h-80zM89 170v477h66v-477h-66z" />
<glyph unicode="&#x22;" horiz-adv-x="360" d="M78 647h67l-8 -217h-51zM216 647h66l-8 -217h-50z" />
<glyph unicode="#" d="M13 191v52h97l26 153h-84v52h94l35 199h61l-35 -199h111l35 199h61l-35 -199h96v-52h-106l-27 -153h94v-52h-103l-33 -191h-61l33 191h-111l-33 -191h-61l33 191h-87zM171 243h110l27 153h-111z" />
<glyph unicode="$" d="M44 489q0 76 45.5 117t121.5 50v90h59v-88q74 -3 140 -26l-25 -64q-69 29 -115 32v-238q38 -14 62 -27t51 -35t40.5 -55t13.5 -77q0 -158 -167 -181v-85h-59v81q-58 0 -166 29l25 64q3 -1 16 -6t16 -6t14.5 -5t15.5 -5.5t14 -4.5t16 -4l15 -2.5t17 -2t17 -0.5v267 q-39 15 -62 26.5t-51 32.5t-41 51.5t-13 71.5zM118 489q0 -39 24.5 -62.5t69.5 -41.5v212q-94 -16 -94 -108zM270 48q93 25 93 118q0 44 -24.5 70.5t-68.5 46.5v-235z" />
<glyph unicode="%" horiz-adv-x="738" d="M54 487q0 171 126 171q40 0 66 -13.5t39 -39.5t17.5 -53t4.5 -65t-4.5 -66t-17.5 -55.5t-39.5 -42t-66.5 -14.5q-39 0 -65.5 14.5t-38.5 42t-16.5 55.5t-4.5 66zM104 487q0 -32 2.5 -54t9.5 -43.5t23 -32.5t40 -11q26 0 42.5 10.5t24 32.5t10 43.5t2.5 54.5q0 32 -2 52.5 t-9.5 41t-24 30.5t-42.5 10q-24 0 -40 -11.5t-23.5 -33t-10 -42t-2.5 -47.5zM157 0l362 629h64l-363 -629h-63zM431 167q0 171 126 171q40 0 66 -13.5t39 -39.5t17.5 -53t4.5 -65t-4.5 -66t-17.5 -55.5t-39.5 -42t-66.5 -14.5q-39 0 -65.5 14.5t-38.5 42t-16.5 55.5t-4.5 66 zM481 167q0 -32 2.5 -54t9.5 -43.5t23 -32.5t40 -11q26 0 42.5 10.5t24 32.5t10 43.5t2.5 54.5q0 32 -2 52.5t-9.5 41t-24 30.5t-42.5 10q-24 0 -40 -11.5t-23.5 -33t-10 -42t-2.5 -47.5z" />
<glyph unicode="&#x26;" d="M46 173q0 130 119 187q-4 3 -18.5 13.5t-22.5 16.5t-20.5 18.5t-19.5 24t-12.5 28t-5.5 34.5q0 75 38 120.5t121 45.5q159 0 159 -157q0 -57 -37.5 -94.5t-112.5 -69.5q-60 -26 -90 -62.5t-30 -102.5q0 -54 33 -96t102 -42q33 0 64 22t52 56v122h-103v49h168v-146 q0 -24 2.5 -52t5.5 -53.5t4 -34.5h-58l-14 54q-47 -68 -125 -68q-88 0 -143.5 47.5t-55.5 139.5zM134 496q0 -13 4.5 -26t10 -22t16.5 -20t16.5 -15.5t18.5 -14t15 -11.5q46 19 74 45.5t28 72.5q0 51 -21 78t-73 27q-89 0 -89 -114z" />
<glyph unicode="'" horiz-adv-x="244" d="M89 647h66l-8 -217h-50z" />
<glyph unicode="(" horiz-adv-x="275" d="M57 254q0 130 22.5 211t78.5 182h60q-53 -97 -72 -181t-19 -212q0 -112 19 -194.5t77 -187.5h-60q-63 109 -84.5 188.5t-21.5 193.5z" />
<glyph unicode=")" horiz-adv-x="275" d="M53 -128q58 105 77 187.5t19 194.5q0 128 -19 212t-72 181h60q56 -101 78.5 -182t22.5 -211q0 -114 -21.5 -193.5t-84.5 -188.5h-60z" />
<glyph unicode="*" horiz-adv-x="390" d="M13 495l19 55l138 -52l6 5l-7 145h56l-8 -147l6 -4l137 52l17 -55l-143 -35l-1 -6l93 -119l-45 -32l-80 124h-7l-83 -124l-45 33l94 118l-3 6z" />
<glyph unicode="+" d="M36 187v55h176v182h63v-182h177v-55h-177v-187h-63v187h-176z" />
<glyph unicode="," horiz-adv-x="244" d="M28 -103l56 178h77l-81 -178h-52z" />
<glyph unicode="-" horiz-adv-x="327" d="M29 214v58h269v-58h-269z" />
<glyph unicode="." horiz-adv-x="244" d="M83 0v83h78v-83h-78z" />
<glyph unicode="/" horiz-adv-x="254" d="M-11 -10l214 668h61l-213 -668h-62z" />
<glyph unicode="0" d="M37 308q0 311 206 311q53 0 91.5 -17.5t60.5 -44.5t34.5 -70t16.5 -83.5t4 -95.5t-3.5 -96.5t-16.5 -86.5t-35 -74t-60.5 -47.5t-92.5 -18.5q-53 0 -91.5 19t-60 47.5t-34 74t-16 86.5t-3.5 96zM112 308q0 -50 2 -83t9 -71t20.5 -60.5t38.5 -37.5t60 -15q31 0 54.5 9.5 t37.5 30.5t23 42.5t12.5 56.5t4.5 60.5t1 67.5q0 49 -1.5 80.5t-9 68.5t-21.5 57.5t-39 34.5t-61 14q-42 0 -70 -22t-40.5 -62.5t-16.5 -79.5t-4 -91z" />
<glyph unicode="1" d="M112 487l144 120h69v-608h-73v528l-115 -99z" />
<glyph unicode="2" d="M38 61q15 14 66 58.5t85 77.5t75.5 77.5t63 85.5t21.5 76q0 68 -31.5 98t-93.5 30q-35 0 -65.5 -10.5t-81.5 -35.5l-25 63q96 39 174 39q89 0 143 -43.5t54 -136.5q0 -34 -16.5 -73.5t-35.5 -68.5t-59 -71.5t-60 -61t-67 -60t-53 -47.5h305v-58h-375z" />
<glyph unicode="3" d="M35 9l25 63q3 -1 14 -5t15 -5.5t15 -5t17 -5t17 -4t20 -3.5t20.5 -2t23.5 -1q59 0 97.5 29t38.5 89q0 78 -49 105.5t-142 27.5v54q87 0 131.5 23.5t44.5 90.5q0 104 -112 104q-50 0 -140 -44l-25 63q74 37 166 37q88 0 137 -39.5t49 -118.5q0 -65 -37.5 -100t-96.5 -42 q63 -10 106 -48.5t43 -113.5q0 -63 -32 -103t-77.5 -55t-104.5 -15q-94 0 -164 24z" />
<glyph unicode="4" d="M30 228l269 379h72v-383h96v-56h-96v-168h-73v168h-242zM90 224h208v296z" />
<glyph unicode="5" d="M54 7l24 63q72 -29 144 -29t107.5 40t35.5 112q0 68 -31 103.5t-85 35.5q-49 0 -125 -39l-55 22v292h344v-56h-271v-184q7 2 22.5 6.5t25.5 7t27 5t34 2.5q90 0 138.5 -51.5t48.5 -145.5q0 -97 -59 -151.5t-158 -54.5q-100 0 -167 22z" />
<glyph unicode="6" d="M45 283q0 85 24 159t80.5 126t136.5 52q63 0 126 -17l-24 -63q-61 24 -97 24q-83 0 -130.5 -74t-47.5 -192q21 45 60 72.5t82 27.5q91 0 139.5 -55.5t48.5 -150.5q0 -86 -54 -146.5t-138 -60.5q-50 0 -87.5 17t-60 44.5t-36 68t-18 80t-4.5 88.5zM122 243q0 -112 32 -157 t98 -45q52 0 84 40.5t32 110.5q0 151 -115 151q-92 0 -131 -100z" />
<glyph unicode="7" d="M44 550v57h355l26 -55l-228 -552h-81l243 550h-315z" />
<glyph unicode="8" d="M37 148q0 65 39 108.5t107 63.5q-1 0 -11.5 5t-16 7.5t-17.5 9t-19 12.5t-18 14.5t-17.5 18t-13 21.5t-9.5 26t-3 29q0 77 49.5 117t138.5 40q93 0 141.5 -37t48.5 -119q0 -33 -15.5 -60.5t-38 -44.5t-43 -26.5t-36.5 -13.5q148 -47 148 -171q0 -163 -210 -163 q-39 0 -72 7t-64.5 24t-49.5 50.5t-18 81.5zM109 149q0 -53 35 -81t97 -28t99.5 27t37.5 82q0 101 -134 143q-60 -18 -97.5 -50t-37.5 -93zM129 461q0 -44 35 -73.5t78 -42.5q44 10 83 41.5t39 75.5q0 54 -29.5 78.5t-88.5 24.5q-117 0 -117 -104z" />
<glyph unicode="9" d="M45 413q0 86 54 146.5t137 60.5q50 0 88 -17t60 -44.5t35.5 -68t18 -80t4.5 -88.5q0 -85 -24 -159t-80.5 -126t-136.5 -52q-63 0 -126 17l25 63q61 -24 96 -24q83 0 130.5 74t47.5 192q-21 -45 -60 -72.5t-82 -27.5q-91 0 -139 55.5t-48 150.5zM119 413q0 -151 115 -151 q92 0 131 100q0 112 -32 157t-98 45q-52 0 -84 -40.5t-32 -110.5z" />
<glyph unicode=":" horiz-adv-x="244" d="M83 0v83h78v-83h-78zM83 369v83h78v-83h-78z" />
<glyph unicode=";" horiz-adv-x="244" d="M28 -103l52 178h81l-81 -178h-52zM80 369v83h78v-83h-78z" />
<glyph unicode="&#x3c;" d="M35 189v79l417 169v-70l-350 -139l350 -138v-69z" />
<glyph unicode="=" d="M35 97v58h417v-58h-417zM35 270v58h417v-58h-417z" />
<glyph unicode="&#x3e;" d="M35 21v69l350 140l-350 137v70l417 -169v-79z" />
<glyph unicode="?" horiz-adv-x="410" d="M51 627q86 30 150 30q179 0 179 -154q0 -33 -16.5 -60.5t-40.5 -47.5t-48 -39.5t-40.5 -45t-16.5 -54.5v-92h-69v97q0 38 16.5 68t39.5 49.5t46.5 37t40 39.5t16.5 48q0 52 -25.5 74.5t-81.5 22.5q-62 0 -132 -35zM144 0v84h80v-84h-80z" />
<glyph unicode="@" horiz-adv-x="841" d="M82 320q0 161 103 249.5t265 88.5q57 0 110.5 -16.5t98.5 -49t72.5 -87t27.5 -123.5q0 -130 -82.5 -193.5t-214.5 -63.5q-96 0 -154.5 51t-58.5 144q0 81 52.5 136.5t142.5 55.5q48 0 86 -15v-193l35 5l20 -52l-114 -14v213q-15 5 -29 5q-56 0 -91 -35.5t-35 -103.5 q0 -76 42 -111.5t106 -35.5q227 0 227 206q0 115 -69.5 170.5t-171.5 55.5q-58 0 -110 -16t-96 -48.5t-69.5 -90t-25.5 -132.5q0 -76 25.5 -133.5t69.5 -89.5t95.5 -47.5t109.5 -15.5q104 0 212 36l24 -55q-105 -32 -239 -32q-167 0 -265.5 88.5t-98.5 248.5z" />
<glyph unicode="A" horiz-adv-x="632" d="M33 0l263 647h60l244 -647h-82l-69 193h-266l-73 -193h-77zM204 248h226l-108 307z" />
<glyph unicode="B" horiz-adv-x="580" d="M98 0v647h176q106 0 162 -36t56 -133q0 -50 -28.5 -86.5t-74.5 -52.5q133 -27 133 -155q0 -103 -57.5 -143.5t-157.5 -40.5h-209zM171 57h130q72 0 108.5 26.5t36.5 100.5q0 70 -41.5 95.5t-114.5 25.5h-119v-248zM171 361h117q57 0 93 29t36 87q0 65 -33 89t-110 24 h-103v-229z" />
<glyph unicode="C" horiz-adv-x="543" d="M63 323q0 71 14 129t44.5 105.5t86 74t131.5 26.5q83 0 157 -24l-25 -64q-72 31 -132 31q-200 0 -200 -277q0 -284 194 -284q56 0 145 36l25 -64q-83 -29 -170 -29q-141 0 -205.5 91t-64.5 249z" />
<glyph unicode="D" horiz-adv-x="628" d="M98 0v647h158q168 0 238.5 -73t70.5 -248t-72 -250.5t-237 -75.5h-158zM171 57h94q115 0 169.5 64.5t54.5 203.5q0 149 -52.5 207t-180.5 58h-85v-533z" />
<glyph unicode="E" horiz-adv-x="536" d="M98 0v647h358v-57h-285v-227h264v-57h-264v-249h294v-57h-367z" />
<glyph unicode="F" horiz-adv-x="512" d="M98 0v647h358v-58h-285v-230h273v-56h-273v-303h-73z" />
<glyph unicode="G" horiz-adv-x="596" d="M63 324q0 157 68 245.5t213 88.5q57 0 149 -24l-25 -64q-71 31 -123 31q-105 0 -155.5 -68t-50.5 -209q0 -50 5 -90t19 -77t36 -62t57 -40t82 -15q57 0 129 40v182h-143v58h209v-281q-58 -30 -100 -43t-98 -13q-272 0 -272 341z" />
<glyph unicode="H" horiz-adv-x="647" d="M98 0v647h73v-284h305v284h73v-647h-73v305h-305v-305h-73z" />
<glyph unicode="I" horiz-adv-x="245" d="M86 0v647h73v-647h-73z" />
<glyph unicode="J" horiz-adv-x="398" d="M18 0q7 1 27.5 5t29.5 6t27.5 7t28 9.5t25 12.5t24 17.5t19 23t15.5 29.5t9 37.5t4 46.5v453h73v-443q0 -43 -9 -78.5t-21.5 -60t-35 -45t-41.5 -32t-49 -22.5t-48.5 -16t-48.5 -12q-6 -1 -9 -2z" />
<glyph unicode="K" horiz-adv-x="589" d="M98 0v647h73v-294l287 294h80l-298 -307l333 -340h-96l-306 312v-312h-73z" />
<glyph unicode="L" horiz-adv-x="475" d="M98 0v647h73v-587h296v-60h-369z" />
<glyph unicode="M" horiz-adv-x="838" d="M98 0v647h112l211 -545l213 545h106v-647h-71v568l-221 -568h-60l-223 568v-568h-67z" />
<glyph unicode="N" horiz-adv-x="674" d="M98 0v647h104l303 -561v561h71v-647h-106l-305 561v-561h-67z" />
<glyph unicode="O" horiz-adv-x="680" d="M63 321q0 100 26 173t90 118.5t164 45.5q77 0 131.5 -25t85 -71.5t44 -105.5t13.5 -135q0 -156 -65 -247t-210 -91q-63 0 -111.5 17t-80 46.5t-51.5 72.5t-28 92.5t-8 109.5zM139 321q0 -137 46.5 -209t156.5 -72t154.5 72.5t44.5 208.5q0 138 -45 209t-154 71 q-110 0 -156.5 -71.5t-46.5 -208.5z" />
<glyph unicode="P" horiz-adv-x="555" d="M98 0v647h187q104 0 160 -43t56 -141q0 -190 -205 -190h-125v-273h-73zM171 330h117q70 0 104 29.5t34 103.5q0 73 -35.5 100t-107.5 27h-112v-260z" />
<glyph unicode="Q" horiz-adv-x="680" d="M63 321q0 155 66.5 246t213.5 91q77 0 131.5 -25t85 -71.5t44 -105.5t13.5 -135q0 -156 -65 -247t-210 -91q-63 0 -111.5 17t-80 46.5t-51.5 72.5t-28 92.5t-8 109.5zM139 321q0 -137 46.5 -209t156.5 -72t154.5 72.5t44.5 208.5q0 138 -45 209t-154 71 q-110 0 -156.5 -71.5t-46.5 -208.5zM317 -83l27 44l212 -18l-26 -57z" />
<glyph unicode="R" horiz-adv-x="587" d="M98 0v647h202q89 0 147.5 -40.5t58.5 -133.5q0 -174 -182 -182l218 -291h-90l-213 289h-68v-289h-73zM171 346h135q125 0 125 127q0 57 -32.5 87t-93.5 30h-134v-244z" />
<glyph unicode="S" horiz-adv-x="549" d="M68 12l25 64q96 -36 150 -36q43 0 76.5 10t58.5 39.5t25 76.5q0 21 -5 38t-20 31.5t-24 22.5t-36.5 19.5t-35.5 15t-42 15.5q-40 14 -64.5 26t-52.5 33t-41.5 51.5t-13.5 70.5q0 86 65 127.5t163 41.5q83 0 160 -26l-25 -64q-76 33 -136 33q-71 0 -111.5 -28t-40.5 -84 q0 -43 31.5 -67t95.5 -47q98 -35 133 -59q75 -52 75 -148q0 -185 -236 -185q-68 0 -174 29z" />
<glyph unicode="T" horiz-adv-x="508" d="M26 589v58h456v-58h-192v-589h-73v589h-191z" />
<glyph unicode="U" horiz-adv-x="678" d="M98 239v408h73v-398q0 -119 41 -164t134 -45q85 0 123 47.5t38 161.5v398h73v-410q0 -129 -57.5 -191.5t-176.5 -62.5q-130 0 -189 62.5t-59 193.5z" />
<glyph unicode="V" horiz-adv-x="604" d="M30 647h81l198 -548l188 548h78l-236 -647h-64z" />
<glyph unicode="W" horiz-adv-x="879" d="M36 647h77l138 -550l152 523h85l143 -524l142 551h70l-172 -647h-85l-146 514l-154 -514h-87z" />
<glyph unicode="X" horiz-adv-x="579" d="M32 0l216 334l-189 313h85l148 -249l156 249h79l-198 -307l212 -340h-89l-165 278l-176 -278h-79z" />
<glyph unicode="Y" horiz-adv-x="562" d="M16 647h83l189 -292l181 292h77l-225 -356v-291h-73v287z" />
<glyph unicode="Z" horiz-adv-x="539" d="M45 62l369 527h-332v58h388l24 -62l-370 -527h362v-58h-418z" />
<glyph unicode="[" horiz-adv-x="272" d="M84 -127v803h142v-50h-79v-700h79v-53h-142z" />
<glyph unicode="\" horiz-adv-x="254" d="M-11 658h62l213 -668h-62z" />
<glyph unicode="]" horiz-adv-x="272" d="M50 -73h79v701h-79v49h142v-803h-142v53z" />
<glyph unicode="^" d="M35 269l181 378h53l185 -378h-69l-142 299l-142 -299h-66z" />
<glyph unicode="_" horiz-adv-x="500" d="M-1 -51h502v-51h-502v51z" />
<glyph unicode="`" horiz-adv-x="208" d="M19 647h74l96 -117h-52z" />
<glyph unicode="a" horiz-adv-x="479" d="M47 120q0 76 54 117t191 41h44v35q0 104 -91 104q-74 0 -156 -40l-23 56q93 35 180 35q73 0 114.5 -37t41.5 -110v-181q0 -9 14 -140h-58q0 3 -8 25.5t-9 28.5q-19 -27 -53 -46t-75 -19q-74 0 -120 32.5t-46 98.5zM116 122q0 -38 27.5 -60t76.5 -22q82 0 117 61v128h-31 q-106 0 -148 -25t-42 -82z" />
<glyph unicode="b" horiz-adv-x="491" d="M61 0q9 86 9 140v517h65v-268q18 30 55 54.5t78 24.5q91 0 133.5 -66.5t42.5 -170.5q0 -106 -48 -174t-145 -68q-76 0 -119 65l-14 -54h-57zM133 110q40 -70 112 -70q131 0 131 189q0 97 -32.5 142.5t-87.5 45.5q-77 0 -123 -98v-209z" />
<glyph unicode="c" horiz-adv-x="433" d="M47 225q0 115 50 179t155 64q65 0 141 -30l-23 -55q-68 34 -119 34q-136 0 -136 -192q0 -185 135 -185q56 0 122 34l23 -55q-25 -12 -71.5 -21t-74.5 -9q-101 0 -151.5 63t-50.5 173z" />
<glyph unicode="d" horiz-adv-x="491" d="M47 231q0 101 48.5 169t134.5 68q42 0 74.5 -23t51.5 -54v266h65v-517q0 -45 10 -140h-57l-15 54q-43 -65 -119 -65q-101 0 -147 67t-46 175zM115 229q0 -189 131 -189q72 0 112 70v209q-8 18 -15 30t-22 30t-35.5 28t-46.5 10q-54 0 -89 -46.5t-35 -141.5z" />
<glyph unicode="e" horiz-adv-x="481" d="M47 224q0 43 9.5 83.5t30 78t59.5 60t92 22.5q107 0 150.5 -68t43.5 -194h-315q5 -167 133 -167q69 0 142 39l20 -54q-74 -35 -170 -35q-98 0 -146.5 66t-48.5 169zM116 257h251q-2 82 -33 121t-95 39q-54 0 -86.5 -41t-36.5 -119z" />
<glyph unicode="f" horiz-adv-x="279" d="M15 406v51h69v48q0 73 54.5 116.5t123.5 48.5l17 -56q-62 -4 -96 -30.5t-34 -72.5v-54h104v-51h-104v-406h-65v406h-69z" />
<glyph unicode="g" horiz-adv-x="496" d="M39 -72q0 35 29 61t61 34q-61 26 -61 77q0 36 44 74q-50 57 -50 125q0 23 8 49t27 54.5t57.5 47t90.5 18.5q43 0 76 -12q130 11 141 11l-20 -50h-65q21 -17 37.5 -48.5t16.5 -67.5q0 -72 -46 -123.5t-138 -51.5q-20 0 -51 6.5t-45 14.5q-3 -4 -7 -9t-6.5 -8t-5.5 -7.5 t-4 -9t-1 -9.5q0 -13 9 -21.5t40 -16.5t87 -13q117 -10 158.5 -39t41.5 -82q0 -64 -60 -97t-150 -33q-115 0 -164.5 32.5t-49.5 93.5zM107 -71q0 -36 37 -56.5t109 -20.5q142 0 142 80q0 30 -47.5 45.5t-167.5 26.5q-34 -8 -53.5 -30.5t-19.5 -44.5zM130 297q0 -55 30 -87.5 t88 -32.5q59 0 87 36t28 87q0 56 -29.5 86.5t-86.5 30.5t-87 -33.5t-30 -86.5z" />
<glyph unicode="h" horiz-adv-x="489" d="M70 0v657h65v-268q17 30 51.5 54.5t77.5 24.5q155 0 155 -175v-293h-65v280q0 67 -20.5 102t-79.5 35q-43 0 -75 -31t-44 -66v-320h-65z" />
<glyph unicode="i" horiz-adv-x="208" d="M68 569v78h72v-78h-72zM72 0v457h65v-457h-65z" />
<glyph unicode="j" horiz-adv-x="204" d="M-26 -103q52 11 72.5 33t20.5 67v460h65v-451q0 -67 -33.5 -106t-103.5 -59zM63 569v78h73v-78h-73z" />
<glyph unicode="k" horiz-adv-x="441" d="M70 0v657h65v-388l194 188h73l-207 -198l231 -259h-79l-212 239v-239h-65z" />
<glyph unicode="l" horiz-adv-x="205" d="M70 0v657h65v-657h-65z" />
<glyph unicode="m" horiz-adv-x="770" d="M61 457h57l15 -68q20 29 54 54t74 25q57 0 88.5 -23t51.5 -68q23 37 59.5 64t81.5 27q80 0 119 -42.5t39 -133.5v-292h-65v290q0 59 -21 93t-79 34q-40 0 -73 -31t-47 -71v-315h-65v290q0 127 -99 127q-38 0 -70.5 -30.5t-45.5 -65.5v-321h-65v352q0 3 -9 105z" />
<glyph unicode="n" horiz-adv-x="489" d="M61 457h57l14 -68l8 11q9 10 13.5 14t14.5 14.5t18.5 15.5t21 11.5t26 9.5t28.5 3q86 0 121.5 -47t35.5 -133v-288h-65v284q0 30 -3.5 51t-13.5 41t-31 30.5t-53 10.5q-41 0 -72.5 -30t-45.5 -67v-320h-65v360q0 22 -4 55.5t-5 41.5z" />
<glyph unicode="o" horiz-adv-x="497" d="M47 231q0 105 48 171t154 66q201 0 201 -237q0 -109 -47 -175.5t-154 -66.5t-154.5 66t-47.5 176zM115 231q0 -191 134 -191q73 0 103 49.5t30 141.5q0 90 -30 138t-103 48q-134 0 -134 -186z" />
<glyph unicode="p" horiz-adv-x="491" d="M61 457h57l16 -69q20 31 54 55.5t73 24.5q97 0 140 -67t43 -175q0 -103 -46.5 -170t-137.5 -67q-79 0 -125 63v-232h-65v500q0 64 -9 137zM134 109q16 -22 26.5 -33t36.5 -23.5t59 -12.5q55 0 87.5 46t32.5 142q0 189 -128 189q-38 0 -69 -29.5t-45 -67.5v-211z" />
<glyph unicode="q" horiz-adv-x="491" d="M47 226q0 106 46 174t141 68q39 0 71 -24t52 -56l17 69h57q-10 -82 -10 -137v-500h-65v232q-46 -63 -125 -63q-92 0 -138 66.5t-46 170.5zM115 228q0 -96 33 -142t88 -46q33 0 58.5 12.5t36 23.5t26.5 33v211q-14 38 -44.5 67.5t-68.5 29.5q-64 0 -96.5 -49.5 t-32.5 -139.5z" />
<glyph unicode="r" horiz-adv-x="343" d="M61 457h57l14 -93q54 104 116 104q47 0 82 -22l-23 -55q-30 26 -72 26q-16 0 -30 -8.5t-25.5 -26t-18.5 -29.5t-16 -33.5t-10 -22.5v-297h-65v355q0 20 -1.5 39.5t-4 37.5t-3.5 25z" />
<glyph unicode="s" horiz-adv-x="415" d="M43 18l23 55q48 -20 73 -26.5t63 -6.5q48 0 73.5 21.5t25.5 60.5q0 14 -6.5 26t-14 19.5t-25.5 15.5t-27.5 11t-33.5 11q-35 11 -54.5 19.5t-45 24t-37.5 38t-12 52.5q0 67 48.5 98t119.5 31q58 0 142 -31l-23 -55q-7 3 -20.5 9.5t-19 9t-16.5 6.5t-19 5.5t-19 3t-24 1.5 q-100 0 -100 -75q0 -27 24 -41.5t73 -29.5q31 -9 45.5 -14t40.5 -18t39 -26.5t23.5 -37t10.5 -52.5q0 -66 -49 -100t-121 -34q-91 0 -157 29z" />
<glyph unicode="t" horiz-adv-x="254" d="M15 406v51h69v117h65v-117h105v-51h-105v-296q0 -51 29.5 -76t93.5 -34l-21 -59q-82 16 -124.5 60t-42.5 110v295h-69z" />
<glyph unicode="u" horiz-adv-x="483" d="M70 169v288h65v-284q0 -41 6 -67t28.5 -46t63.5 -20t70 29.5t44 67.5v320h65v-360q0 -22 4.5 -54t5.5 -43h-57l-15 68q-1 -2 -10 -13t-14.5 -17t-18 -17t-23.5 -16.5t-27 -10.5t-33 -5q-154 0 -154 180z" />
<glyph unicode="v" horiz-adv-x="489" d="M40 457h70l138 -372l135 372h67l-176 -457h-57z" />
<glyph unicode="w" horiz-adv-x="712" d="M38 457h69l114 -374l107 330h60l100 -328l121 372h65l-156 -457h-65l-98 322l-106 -322h-67z" />
<glyph unicode="x" horiz-adv-x="450" d="M25 0l164 231l-153 226h78l115 -175l119 175h69l-155 -219l163 -238h-79l-121 186l-129 -186h-71z" />
<glyph unicode="y" horiz-adv-x="486" d="M40 457h70l146 -363l124 363h66l-191 -530q-20 -55 -49.5 -85t-89.5 -51l-21 57q71 19 88 65l40 106z" />
<glyph unicode="z" horiz-adv-x="410" d="M37 55l263 351h-239v51h289l23 -55l-262 -351h250v-51h-301z" />
<glyph unicode="{" horiz-adv-x="357" d="M48 238v55q27 1 43 16.5t21.5 40t9.5 55.5t6 63.5t12 64t26.5 56t51.5 40.5t85 18v-54q-56 0 -83.5 -28t-32.5 -70.5t-7 -87.5t-17.5 -85.5t-52.5 -57.5q32 -12 49 -42t19.5 -66t7 -75t11 -71t33.5 -53t73 -21v-54q-65 2 -103.5 28t-50 64.5t-18.5 84t-9 84t-20 65.5 t-54 30z" />
<glyph unicode="|" horiz-adv-x="244" d="M92 -166v868h59v-868h-59z" />
<glyph unicode="}" horiz-adv-x="357" d="M54 -64q46 0 73 21t33.5 53t11 71t7 75t19.5 66t49 42q-37 17 -52.5 57.5t-17.5 85.5t-7 87.5t-32.5 70.5t-83.5 28v54q50 -2 85 -18t51.5 -40.5t26.5 -56t12 -64t6 -63.5t9.5 -55.5t21.5 -40t43 -16.5v-55q-36 -3 -54 -30t-20 -65.5t-9 -84t-18.5 -84t-50 -64.5 t-103.5 -28v54z" />
<glyph unicode="~" d="M26 185q0 49 32 77t84 28q43 0 107 -38.5t87 -38.5q70 0 70 71l56 -28q0 -48 -34 -76.5t-85 -28.5q-34 0 -72 19.5t-70 39t-52 19.5q-67 0 -67 -72z" />
<glyph unicode="&#xa1;" horiz-adv-x="244" d="M82 563v84h80v-84h-80zM90 0v477h65v-477h-65z" />
<glyph unicode="&#xa2;" horiz-adv-x="423" d="M47 225q0 220 169 241v92h57v-91q49 -5 110 -29l-23 -55q-43 22 -87 30v-370q43 6 89 31l23 -55q-42 -20 -112 -28v-90h-57v90q-85 10 -127 72t-42 162zM115 225q0 -160 101 -180v368q-101 -20 -101 -188z" />
<glyph unicode="&#xa3;" d="M47 331v55h72v26q0 44 9 80t22 60.5t36.5 44t42 30.5t50 21t50.5 13.5t52 9.5l20 -64q-89 -13 -119 -25q-90 -37 -90 -164v-32h174v-55h-174v-271h271v-60h-412v60h68v271h-72z" />
<glyph unicode="&#xa4;" d="M0 235l17 57h77q0 5 -0.5 15.5t-0.5 15.5q0 26 1 39h-94l17 58h83q37 238 253 238q79 0 158 -27l-19 -64q-74 34 -139 34q-81 0 -122 -48t-55 -133h277l-18 -58h-265q-1 -13 -1 -38q0 -6 0.5 -16.5t0.5 -15.5h246l-17 -57h-224q12 -92 51.5 -143.5t120.5 -51.5 q23 0 50.5 6.5t41 12t51.5 20.5v-73q-76 -23 -143 -23q-214 0 -248 252h-99z" />
<glyph unicode="&#xa5;" d="M6 647h82l162 -290l156 290h75l-186 -337h135v-55h-146v-71h146v-55h-146v-129h-73v129h-145v55h145v71h-145v55h132z" />
<glyph unicode="&#xa6;" horiz-adv-x="244" d="M90 -78v234h63v-234h-63zM90 359v234h63v-234h-63z" />
<glyph unicode="&#xa7;" horiz-adv-x="457" d="M59 331q0 79 68 109q-52 31 -52 89q0 67 48.5 98t120.5 31q59 0 132 -31l-23 -57q-24 13 -35 18.5t-31 11t-42 5.5q-100 0 -100 -73q0 -26 26 -42t63.5 -26.5t74.5 -24.5t63 -44.5t26 -77.5q0 -71 -67 -101q49 -33 49 -98q0 -66 -48 -100t-120 -34q-80 0 -147 29l24 58 q3 -1 21 -9t21 -9t17 -6t21 -6t19.5 -2.5t25.5 -1.5q96 0 96 80q0 32 -26 51.5t-63 30t-73.5 23t-62.5 39.5t-26 70zM129 333q0 -15 7.5 -26.5t24 -19.5t31 -13.5t39.5 -13t39 -12.5q58 19 58 68q0 18 -6 31t-23.5 23t-26.5 14t-40 13.5t-38 11.5q-65 -11 -65 -76z" />
<glyph unicode="&#xa8;" horiz-adv-x="280" d="M-4 574v73h65v-73h-65zM147 574v73h65v-73h-65z" />
<glyph unicode="&#xa9;" horiz-adv-x="720" d="M25 324q0 141 97 237.5t238 96.5q143 0 239 -96t96 -238q0 -141 -97 -237.5t-238 -96.5t-238 96.5t-97 237.5zM74 324q0 -119 83.5 -205t202.5 -86t202.5 86t83.5 205q0 121 -83 206t-203 85q-121 0 -203.5 -85t-82.5 -206zM186 322q0 90 41 145.5t132 55.5q50 0 100 -16 l-16 -43q-49 20 -84 20q-123 0 -123 -161q0 -166 120 -166q34 0 92 23l15 -43q-57 -19 -107 -19q-87 0 -128.5 55t-41.5 149z" />
<glyph unicode="&#xaa;" d="M131 457q0 42 32.5 65.5t114.5 23.5h26v16q0 27 -12 39.5t-42 12.5q-48 0 -94 -21l-14 36q55 19 108 19q44 0 71.5 -20t27.5 -60v-100q0 -7 9 -77h-41q0 2 -5 14t-5 15q-27 -35 -76 -35q-44 0 -72 18t-28 54zM177 458q0 -40 58 -40q46 0 70 38v57h-19q-61 0 -85 -12 t-24 -43z" />
<glyph unicode="&#xab;" horiz-adv-x="364" d="M33 270l93 182h64l-97 -180l96 -180h-63zM176 270l93 182h64l-97 -180l96 -180h-63z" />
<glyph unicode="&#xac;" d="M20 286v55h442v-233h-63v178h-379z" />
<glyph unicode="&#xad;" horiz-adv-x="327" d="M29 214v58h269v-58h-269z" />
<glyph unicode="&#xae;" horiz-adv-x="720" d="M25 324q0 141 97 237.5t238 96.5q143 0 239 -96t96 -238q0 -141 -97 -237.5t-238 -96.5t-238 96.5t-97 237.5zM74 324q0 -119 83.5 -205t202.5 -86t202.5 86t83.5 205q0 121 -83 206t-203 85q-121 0 -203.5 -85t-82.5 -206zM236 129v389h127q56 0 93 -25t37 -80 q0 -46 -27.5 -77t-88.5 -34l138 -173h-59l-135 173h-37v-173h-48zM284 340h83q76 0 76 73q0 66 -77 66h-82v-139z" />
<glyph unicode="&#xaf;" horiz-adv-x="208" d="M-12 566v59h232v-59h-232z" />
<glyph unicode="&#xb0;" horiz-adv-x="390" d="M48 468q0 62 43 104t104 42t104 -42t43 -104t-43.5 -102t-104.5 -40t-103.5 40t-42.5 102zM103 468q0 -37 27.5 -64t63.5 -27q37 0 65 27t28 64q0 41 -26 68t-66 27t-66 -27t-26 -68z" />
<glyph unicode="&#xb1;" d="M35 1v58h417v-58h-417zM36 247v55h176v122h63v-122h177v-55h-177v-127h-63v127h-176z" />
<glyph unicode="&#xb2;" horiz-adv-x="332" d="M46 353q9 8 50.5 41.5t66 55t48 53t23.5 54.5q0 36 -18.5 50t-57.5 14t-89 -25l-14 40q57 22 104 22q54 0 89.5 -25t35.5 -76q0 -22 -12 -45.5t-34.5 -46.5t-41.5 -39.5t-48.5 -39.5t-39.5 -31h179v-38h-227z" />
<glyph unicode="&#xb3;" horiz-adv-x="332" d="M50 322l14 40q49 -17 86 -17q83 0 83 59q0 42 -29.5 56.5t-86.5 14.5v35q53 0 80 12t27 48q0 31 -17.5 41t-51.5 10q-30 0 -84 -24l-14 40q45 21 99 21t86 -22t32 -65q0 -36 -22.5 -55t-58.5 -23q90 -13 90 -89q0 -50 -39 -72.5t-96 -22.5t-98 13z" />
<glyph unicode="&#xb4;" horiz-adv-x="208" d="M19 530l96 117h74l-118 -117h-52z" />
<glyph unicode="&#xb6;" horiz-adv-x="540" d="M80 477q0 23 4 44.5t16 45t31.5 40.5t54 28.5t79.5 11.5h219v-835h-63v780h-101q-48 0 -78 -29.5t-30 -86.5q0 -43 29.5 -72.5t68.5 -39.5v-552h-63v499q-88 7 -127.5 55t-39.5 111z" />
<glyph unicode="&#xb7;" horiz-adv-x="244" d="M80 240v87h84v-87h-84z" />
<glyph unicode="&#xb8;" horiz-adv-x="208" d="M3 -175l18 51q56 -7 68 -7q20 0 34 8.5t14 25.5q0 18 -15 25.5t-65 7.5l21 79h56l-10 -45q34 0 53 -20t19 -45q0 -41 -27.5 -64.5t-74.5 -23.5q-33 0 -91 8z" />
<glyph unicode="&#xb9;" horiz-adv-x="332" d="M79 581l86 66h46v-334h-50v284l-67 -54z" />
<glyph unicode="&#xba;" d="M122 527q0 57 29.5 94t93.5 37q121 0 121 -131q0 -133 -121 -133q-64 0 -93.5 36.5t-29.5 96.5zM167 527q0 -99 78 -99q76 0 76 99q0 49 -17.5 73t-58.5 24q-78 0 -78 -97z" />
<glyph unicode="&#xbb;" horiz-adv-x="364" d="M31 452h64l93 -182l-93 -178h-63l96 180zM174 452h64l93 -182l-93 -178h-63l96 180z" />
<glyph unicode="&#xbc;" horiz-adv-x="738" d="M65 581l85 66h46v-334h-49v284l-68 -54zM115 0l363 629h63l-366 -629h-60zM370 126l162 208h48v-208h53v-37h-53v-89h-49v89h-145zM412 126h119v154z" />
<glyph unicode="&#xbd;" horiz-adv-x="738" d="M63 581l86 66h46v-334h-50v284l-67 -54zM113 0l362 629h64l-362 -629h-64zM425 39q11 10 51 41.5t65.5 53t49 52.5t23.5 54q0 36 -18.5 50t-57.5 14q-40 0 -90 -25l-14 41q54 21 105 21q54 0 89 -25t35 -76q0 -22 -11.5 -45.5t-34.5 -46.5t-41.5 -39.5t-48.5 -39.5 t-39 -31h178v-38h-226z" />
<glyph unicode="&#xbe;" horiz-adv-x="738" d="M46 322l15 40q49 -17 86 -17q82 0 82 59q0 42 -29 56.5t-86 14.5v35q53 0 79.5 12t26.5 48q0 31 -17.5 41t-50.5 10q-30 0 -84 -24l-15 40q45 21 100 21q54 0 85.5 -22t31.5 -65q0 -69 -80 -78q89 -13 89 -89q0 -50 -39 -72.5t-95 -22.5q-58 0 -99 13zM143 0l362 629h63 l-363 -629h-62zM393 126l162 208h48v-208h53v-37h-53v-89h-49v89h-145zM435 126h119v154z" />
<glyph unicode="&#xbf;" horiz-adv-x="410" d="M51 144q0 33 16.5 60.5t40.5 47.5t48 39.5t40.5 45t16.5 54.5v92h68v-97q0 -38 -16.5 -68t-39.5 -49.5t-46 -37t-39.5 -39.5t-16.5 -48q0 -52 25.5 -74.5t81.5 -22.5q62 0 132 35l18 -62q-86 -30 -150 -30q-179 0 -179 154zM207 563v84h79v-84h-79z" />
<glyph unicode="&#xc0;" horiz-adv-x="632" d="M33 0l263 647h60l244 -647h-82l-69 193h-266l-73 -193h-77zM204 248h226l-108 307zM245 801h77l93 -117h-52z" />
<glyph unicode="&#xc1;" horiz-adv-x="632" d="M33 0l263 647h60l244 -647h-82l-69 193h-266l-73 -193h-77zM204 248h226l-108 307zM239 682l96 117h74l-118 -117h-52z" />
<glyph unicode="&#xc2;" horiz-adv-x="632" d="M33 0l263 647h60l244 -647h-82l-69 193h-266l-73 -193h-77zM204 248h226l-108 307zM206 699l89 110h58l87 -110h-54l-62 70l-64 -70h-54z" />
<glyph unicode="&#xc3;" horiz-adv-x="632" d="M33 0l263 647h60l244 -647h-82l-69 193h-266l-73 -193h-77zM191 704q16 38 36 52.5t55 14.5q18 0 49 -18.5t44 -18.5q30 0 44 41l44 -20q-23 -66 -86 -66q-19 0 -50 19.5t-46 19.5q-32 0 -46 -43zM204 248h226l-108 307z" />
<glyph unicode="&#xc4;" horiz-adv-x="632" d="M33 0l263 647h60l244 -647h-82l-69 193h-266l-73 -193h-77zM204 248h226l-108 307zM216 689v73h65v-73h-65zM367 689v73h65v-73h-65z" />
<glyph unicode="&#xc5;" horiz-adv-x="632" d="M33 0l263 647h60l244 -647h-82l-69 193h-266l-73 -193h-77zM204 248h226l-108 307zM253 753q0 34 24 58t59 24t59 -23.5t24 -58.5q0 -34 -24 -58t-59 -24q-34 0 -58.5 24t-24.5 58zM287 754q0 -18 14 -33.5t35 -15.5q23 0 35.5 14.5t12.5 34.5q0 21 -13 35t-35 14 q-21 0 -35 -15t-14 -34z" />
<glyph unicode="&#xc6;" horiz-adv-x="900" d="M33 0l367 647h420v-57h-340l41 -227h278v-57h-267l45 -249h252v-57h-317l-33 193h-257l-107 -193h-82zM251 248h218l-52 304z" />
<glyph unicode="&#xc7;" horiz-adv-x="543" d="M63 323q0 71 14 129t44.5 105.5t86 74t131.5 26.5q83 0 157 -24l-25 -64q-72 31 -132 31q-200 0 -200 -277q0 -284 194 -284q56 0 145 36l25 -64q-80 -28 -155 -29l-2 -13q34 0 53.5 -20t19.5 -45q0 -41 -27.5 -64.5t-75.5 -23.5q-33 0 -91 8l17 52q64 -8 69 -8 q20 0 34 8.5t14 25.5q0 18 -15 25.5t-65 7.5l13 50q-229 25 -229 337z" />
<glyph unicode="&#xc8;" horiz-adv-x="536" d="M98 0v647h358v-57h-285v-227h264v-57h-264v-249h294v-57h-367zM179 802h74l96 -117h-52z" />
<glyph unicode="&#xc9;" horiz-adv-x="536" d="M98 0v647h358v-57h-285v-227h264v-57h-264v-249h294v-57h-367zM207 677l96 117h74l-118 -117h-52z" />
<glyph unicode="&#xca;" horiz-adv-x="536" d="M98 0v647h358v-57h-285v-227h264v-57h-264v-249h294v-57h-367zM162 689l89 110h58l87 -110h-54l-62 70l-64 -70h-54z" />
<glyph unicode="&#xcb;" horiz-adv-x="536" d="M98 0v647h358v-57h-285v-227h264v-57h-264v-249h294v-57h-367zM173 689v73h65v-73h-65zM324 689v73h65v-73h-65z" />
<glyph unicode="&#xcc;" horiz-adv-x="245" d="M30 809h58l112 -117h-52zM88 0v647h73v-647h-73z" />
<glyph unicode="&#xcd;" horiz-adv-x="245" d="M41 692l96 117h74l-118 -117h-52zM86 0v647h73v-647h-73z" />
<glyph unicode="&#xce;" horiz-adv-x="245" d="M6 697l89 110h58l87 -110h-54l-62 70l-64 -70h-54zM86 0v647h73v-647h-73z" />
<glyph unicode="&#xcf;" horiz-adv-x="245" d="M15 703v73h65v-73h-65zM87 0v647h73v-647h-73zM166 703v73h65v-73h-65z" />
<glyph unicode="&#xd0;" horiz-adv-x="628" d="M29 339v54h69v254h158q168 0 238.5 -73t70.5 -248t-72 -250.5t-237 -75.5h-158v339h-69zM171 57h94q115 0 169.5 64.5t54.5 203.5q0 149 -52.5 207t-180.5 58h-85v-197h150v-54h-150v-282z" />
<glyph unicode="&#xd1;" horiz-adv-x="674" d="M98 0v647h104l303 -561v561h71v-647h-106l-305 561v-561h-67zM190 702q16 38 36 52.5t55 14.5q18 0 49 -18.5t44 -18.5q30 0 44 41l44 -20q-23 -66 -86 -66q-19 0 -50 19.5t-46 19.5q-32 0 -46 -43z" />
<glyph unicode="&#xd2;" horiz-adv-x="680" d="M63 321q0 100 26 173t90 118.5t164 45.5q77 0 131.5 -25t85 -71.5t44 -105.5t13.5 -135q0 -156 -65 -247t-210 -91q-63 0 -111.5 17t-80 46.5t-51.5 72.5t-28 92.5t-8 109.5zM139 321q0 -137 46.5 -209t156.5 -72t154.5 72.5t44.5 208.5q0 138 -45 209t-154 71 q-110 0 -156.5 -71.5t-46.5 -208.5zM228 802h74l96 -117h-52z" />
<glyph unicode="&#xd3;" horiz-adv-x="680" d="M63 321q0 100 26 173t90 118.5t164 45.5q77 0 131.5 -25t85 -71.5t44 -105.5t13.5 -135q0 -156 -65 -247t-210 -91q-63 0 -111.5 17t-80 46.5t-51.5 72.5t-28 92.5t-8 109.5zM139 321q0 -137 46.5 -209t156.5 -72t154.5 72.5t44.5 208.5q0 138 -45 209t-154 71 q-110 0 -156.5 -71.5t-46.5 -208.5zM281 682l96 117h74l-118 -117h-52z" />
<glyph unicode="&#xd4;" horiz-adv-x="680" d="M63 321q0 100 26 173t90 118.5t164 45.5q77 0 131.5 -25t85 -71.5t44 -105.5t13.5 -135q0 -156 -65 -247t-210 -91q-63 0 -111.5 17t-80 46.5t-51.5 72.5t-28 92.5t-8 109.5zM139 321q0 -137 46.5 -209t156.5 -72t154.5 72.5t44.5 208.5q0 138 -45 209t-154 71 q-110 0 -156.5 -71.5t-46.5 -208.5zM224 689l89 110h58l87 -110h-54l-62 70l-64 -70h-54z" />
<glyph unicode="&#xd5;" horiz-adv-x="680" d="M63 321q0 100 26 173t90 118.5t164 45.5q77 0 131.5 -25t85 -71.5t44 -105.5t13.5 -135q0 -156 -65 -247t-210 -91q-63 0 -111.5 17t-80 46.5t-51.5 72.5t-28 92.5t-8 109.5zM139 321q0 -137 46.5 -209t156.5 -72t154.5 72.5t44.5 208.5q0 138 -45 209t-154 71 q-110 0 -156.5 -71.5t-46.5 -208.5zM205 702q16 38 36 52.5t55 14.5q18 0 49 -18.5t44 -18.5q30 0 44 41l44 -20q-23 -66 -86 -66q-19 0 -50 19.5t-46 19.5q-32 0 -46 -43z" />
<glyph unicode="&#xd6;" horiz-adv-x="680" d="M63 321q0 100 26 173t90 118.5t164 45.5q77 0 131.5 -25t85 -71.5t44 -105.5t13.5 -135q0 -156 -65 -247t-210 -91q-63 0 -111.5 17t-80 46.5t-51.5 72.5t-28 92.5t-8 109.5zM139 321q0 -137 46.5 -209t156.5 -72t154.5 72.5t44.5 208.5q0 138 -45 209t-154 71 q-110 0 -156.5 -71.5t-46.5 -208.5zM233 689v73h65v-73h-65zM384 689v73h65v-73h-65z" />
<glyph unicode="&#xd7;" d="M49 74l152 152l-152 151l44 44l152 -152l151 152l44 -44l-152 -151l152 -152l-44 -44l-151 152l-152 -152z" />
<glyph unicode="&#xd8;" horiz-adv-x="680" d="M16 -1l90 106q-43 80 -43 216q0 100 26 173t90 118.5t164 45.5q116 0 182 -60l79 92l48 -44l-83 -98q48 -81 48 -227q0 -156 -65 -247t-210 -91q-127 0 -194 70l-84 -99zM139 321q0 -97 20 -154l323 380q-49 54 -140 54q-110 0 -156.5 -71.5t-46.5 -208.5zM192 105 q49 -65 150 -65q110 0 154.5 72.5t44.5 208.5q0 104 -25 165z" />
<glyph unicode="&#xd9;" horiz-adv-x="678" d="M98 239v408h73v-398q0 -119 41 -164t134 -45q85 0 123 47.5t38 161.5v398h73v-410q0 -129 -57.5 -191.5t-176.5 -62.5q-130 0 -189 62.5t-59 193.5zM235 802h74l96 -117h-52z" />
<glyph unicode="&#xda;" horiz-adv-x="678" d="M98 239v408h73v-398q0 -119 41 -164t134 -45q85 0 123 47.5t38 161.5v398h73v-410q0 -129 -57.5 -191.5t-176.5 -62.5q-130 0 -189 62.5t-59 193.5zM270 679l96 117h74l-118 -117h-52z" />
<glyph unicode="&#xdb;" horiz-adv-x="678" d="M98 239v408h73v-398q0 -119 41 -164t134 -45q85 0 123 47.5t38 161.5v398h73v-410q0 -129 -57.5 -191.5t-176.5 -62.5q-130 0 -189 62.5t-59 193.5zM220 689l89 110h58l87 -110h-54l-62 70l-64 -70h-54z" />
<glyph unicode="&#xdc;" horiz-adv-x="678" d="M98 239v408h73v-398q0 -119 41 -164t134 -45q85 0 123 47.5t38 161.5v398h73v-410q0 -129 -57.5 -191.5t-176.5 -62.5q-130 0 -189 62.5t-59 193.5zM236 689v73h65v-73h-65zM387 689v73h65v-73h-65z" />
<glyph unicode="&#xdd;" horiz-adv-x="562" d="M16 647h83l189 -292l181 292h77l-225 -356v-291h-73v287zM206 692l96 117h74l-118 -117h-52z" />
<glyph unicode="&#xde;" horiz-adv-x="555" d="M98 0v647h73v-136h114q104 0 160 -43t56 -141q0 -190 -205 -190h-125v-137h-73zM171 194h117q70 0 104 29.5t34 103.5q0 73 -35.5 100t-107.5 27h-112v-260z" />
<glyph unicode="&#xdf;" horiz-adv-x="494" d="M70 0v471q0 96 36.5 141t118.5 45q68 0 113.5 -36t45.5 -108q0 -19 -5 -37t-15.5 -33t-20 -27t-24.5 -23.5t-23 -17.5t-21.5 -14.5t-14.5 -9.5q77 -32 110 -58q75 -59 75 -155q0 -195 -243 -195l21 56q157 0 157 141q0 33 -13.5 61.5t-32 47t-44.5 34t-46 23t-40 13.5v53 q22 14 32.5 22t34.5 28.5t35.5 44t11.5 49.5q0 45 -28.5 67.5t-64.5 22.5q-49 0 -69.5 -27t-20.5 -97v-482h-65z" />
<glyph unicode="&#xe0;" horiz-adv-x="479" d="M47 120q0 76 54 117t191 41h44v35q0 104 -91 104q-74 0 -156 -40l-23 56q93 35 180 35q73 0 114.5 -37t41.5 -110v-181q0 -9 14 -140h-58q0 3 -8 25.5t-9 28.5q-19 -27 -53 -46t-75 -19q-74 0 -120 32.5t-46 98.5zM108 647h74l96 -117h-52zM116 122q0 -38 27.5 -60 t76.5 -22q82 0 117 61v128h-31q-106 0 -148 -25t-42 -82z" />
<glyph unicode="&#xe1;" horiz-adv-x="479" d="M47 120q0 76 54 117t191 41h44v35q0 104 -91 104q-74 0 -156 -40l-23 56q93 35 180 35q73 0 114.5 -37t41.5 -110v-181q0 -9 14 -140h-58q0 3 -8 25.5t-9 28.5q-19 -27 -53 -46t-75 -19q-74 0 -120 32.5t-46 98.5zM116 122q0 -38 27.5 -60t76.5 -22q82 0 117 61v128h-31 q-106 0 -148 -25t-42 -82zM168 530l96 117h74l-118 -117h-52z" />
<glyph unicode="&#xe2;" horiz-adv-x="479" d="M47 120q0 76 54 117t191 41h44v35q0 104 -91 104q-74 0 -156 -40l-23 56q93 35 180 35q73 0 114.5 -37t41.5 -110v-181q0 -9 14 -140h-58q0 3 -8 25.5t-9 28.5q-19 -27 -53 -46t-75 -19q-74 0 -120 32.5t-46 98.5zM108 537l89 110h58l87 -110h-54l-62 70l-64 -70h-54z M116 122q0 -38 27.5 -60t76.5 -22q82 0 117 61v128h-31q-106 0 -148 -25t-42 -82z" />
<glyph unicode="&#xe3;" horiz-adv-x="479" d="M47 120q0 76 54 117t191 41h44v35q0 104 -91 104q-74 0 -156 -40l-23 56q93 35 180 35q73 0 114.5 -37t41.5 -110v-181q0 -9 14 -140h-58q0 3 -8 25.5t-9 28.5q-19 -27 -53 -46t-75 -19q-74 0 -120 32.5t-46 98.5zM89 554q16 38 36 52.5t55 14.5q18 0 49 -18.5t44 -18.5 q30 0 44 41l44 -20q-23 -66 -86 -66q-19 0 -50 19.5t-46 19.5q-32 0 -46 -43zM116 122q0 -38 27.5 -60t76.5 -22q82 0 117 61v128h-31q-106 0 -148 -25t-42 -82z" />
<glyph unicode="&#xe4;" horiz-adv-x="479" d="M47 120q0 76 54 117t191 41h44v35q0 104 -91 104q-74 0 -156 -40l-23 56q93 35 180 35q73 0 114.5 -37t41.5 -110v-181q0 -9 14 -140h-58q0 3 -8 25.5t-9 28.5q-19 -27 -53 -46t-75 -19q-74 0 -120 32.5t-46 98.5zM116 122q0 -38 27.5 -60t76.5 -22q82 0 117 61v128h-31 q-106 0 -148 -25t-42 -82zM128 543v77h65v-77h-65zM280 543v77h66v-77h-66z" />
<glyph unicode="&#xe5;" horiz-adv-x="479" d="M47 120q0 76 54 117t191 41h44v35q0 104 -91 104q-74 0 -156 -40l-23 56q93 35 180 35q73 0 114.5 -37t41.5 -110v-181q0 -9 14 -140h-58q0 3 -8 25.5t-9 28.5q-19 -27 -53 -46t-75 -19q-74 0 -120 32.5t-46 98.5zM116 122q0 -38 27.5 -60t76.5 -22q82 0 117 61v128h-31 q-106 0 -148 -25t-42 -82zM157 589q0 34 24 58t59 24t59 -23.5t24 -58.5q0 -34 -24 -58t-59 -24q-34 0 -58.5 24t-24.5 58zM191 590q0 -18 14 -33.5t35 -15.5q23 0 35.5 14.5t12.5 34.5q0 21 -13 35t-35 14q-21 0 -35 -15t-14 -34z" />
<glyph unicode="&#xe6;" horiz-adv-x="768" d="M47 120q0 76 54 117t191 41h47v35q0 104 -94 104q-74 0 -156 -40l-23 56q93 35 180 35q104 0 137 -77q47 77 142 77q109 0 151.5 -67t42.5 -195h-315q5 -167 133 -167q64 0 137 39l21 -54q-74 -35 -166 -35q-58 0 -98.5 25.5t-58.5 64.5q-64 -90 -159 -90 q-74 0 -120 32.5t-46 98.5zM116 122q0 -38 27.5 -60t76.5 -22q37 0 69.5 21.5t49.5 51.5v114h-33q-106 0 -148 -24t-42 -81zM403 257h251q-2 82 -33 121t-95 39q-54 0 -86.5 -41t-36.5 -119z" />
<glyph unicode="&#xe7;" horiz-adv-x="423" d="M47 225q0 114 52 177.5t153 63.5q60 0 120 -25l-13 -60q-53 35 -108 35q-137 0 -137 -191q0 -84 34.5 -134t101.5 -50q52 0 112 36l14 -63q-48 -19 -107 -24l-5 -20q34 0 53 -20.5t19 -44.5q0 -38 -27.5 -62.5t-73.5 -24.5q-40 0 -91 7l8 50q64 -8 78 -8q20 0 35 9.5 t15 26.5q0 18 -16 26t-66 8l15 55q-81 12 -123.5 74t-42.5 159z" />
<glyph unicode="&#xe8;" horiz-adv-x="481" d="M47 224q0 43 9.5 83.5t30 78t59.5 60t92 22.5q107 0 150.5 -68t43.5 -194h-315q5 -167 133 -167q69 0 142 39l20 -54q-74 -35 -170 -35q-98 0 -146.5 66t-48.5 169zM116 257h251q-2 82 -33 121t-95 39q-54 0 -86.5 -41t-36.5 -119zM123 647h74l96 -117h-52z" />
<glyph unicode="&#xe9;" horiz-adv-x="481" d="M47 224q0 43 9.5 83.5t30 78t59.5 60t92 22.5q107 0 150.5 -68t43.5 -194h-315q5 -167 133 -167q69 0 142 39l20 -54q-74 -35 -170 -35q-98 0 -146.5 66t-48.5 169zM116 257h251q-2 82 -33 121t-95 39q-54 0 -86.5 -41t-36.5 -119zM168 530l96 117h74l-118 -117h-52z" />
<glyph unicode="&#xea;" horiz-adv-x="481" d="M47 224q0 43 9.5 83.5t30 78t59.5 60t92 22.5q107 0 150.5 -68t43.5 -194h-315q5 -167 133 -167q69 0 142 39l20 -54q-74 -35 -170 -35q-98 0 -146.5 66t-48.5 169zM116 257h251q-2 82 -33 121t-95 39q-54 0 -86.5 -41t-36.5 -119zM122 537l89 110h58l87 -110h-54l-62 70 l-64 -70h-54z" />
<glyph unicode="&#xeb;" horiz-adv-x="481" d="M47 224q0 43 9.5 83.5t30 78t59.5 60t92 22.5q107 0 150.5 -68t43.5 -194h-315q5 -167 133 -167q69 0 142 39l20 -54q-74 -35 -170 -35q-98 0 -146.5 66t-48.5 169zM116 257h251q-2 82 -33 121t-95 39q-54 0 -86.5 -41t-36.5 -119zM138 554v73h65v-73h-65zM289 554v73h65 v-73h-65z" />
<glyph unicode="&#xec;" horiz-adv-x="208" d="M14 647h74l96 -117h-52zM72 0v457h65v-457h-65z" />
<glyph unicode="&#xed;" horiz-adv-x="208" d="M20 530l96 117h74l-118 -117h-52zM73 0v457h65v-457h-65z" />
<glyph unicode="&#xee;" horiz-adv-x="208" d="M-13 537l89 110h58l87 -110h-54l-62 70l-64 -70h-54zM71 0v457h65v-457h-65z" />
<glyph unicode="&#xef;" horiz-adv-x="208" d="M-4 568v73h65v-73h-65zM73 0v457h65v-457h-65zM147 568v73h65v-73h-65z" />
<glyph unicode="&#xf0;" horiz-adv-x="487" d="M45 192q0 95 48 150.5t139 55.5q43 0 82 -27.5t60 -72.5q0 185 -110 255l-86 -58l-53 31l79 53q-36 15 -93 23l-26 65q107 -12 179 -47l76 52l52 -31l-76 -51q126 -92 126 -307q0 -49 -4.5 -88.5t-18 -80t-36 -68t-60 -44.5t-87.5 -17q-84 0 -137.5 60.5t-53.5 146.5z M119 192q0 -70 32 -110.5t84 -40.5q66 0 98 45t32 157q-39 100 -131 100q-115 0 -115 -151z" />
<glyph unicode="&#xf1;" horiz-adv-x="489" d="M61 457h57l14 -68l8 11q9 10 13.5 14t14.5 14.5t18.5 15.5t21 11.5t26 9.5t28.5 3q86 0 121.5 -47t35.5 -133v-288h-65v284q0 30 -3.5 51t-13.5 41t-31 30.5t-53 10.5q-41 0 -72.5 -30t-45.5 -67v-320h-65v360q0 22 -4 55.5t-5 41.5zM112 554q16 38 36 52.5t55 14.5 q18 0 49 -18.5t44 -18.5q30 0 44 41l44 -20q-23 -66 -86 -66q-19 0 -50 19.5t-46 19.5q-32 0 -46 -43z" />
<glyph unicode="&#xf2;" horiz-adv-x="497" d="M47 231q0 105 48 171t154 66q201 0 201 -237q0 -109 -47 -175.5t-154 -66.5t-154.5 66t-47.5 176zM115 231q0 -191 134 -191q73 0 103 49.5t30 141.5q0 90 -30 138t-103 48q-134 0 -134 -186zM145 647h74l96 -117h-52z" />
<glyph unicode="&#xf3;" horiz-adv-x="497" d="M47 231q0 105 48 171t154 66q201 0 201 -237q0 -109 -47 -175.5t-154 -66.5t-154.5 66t-47.5 176zM115 231q0 -191 134 -191q73 0 103 49.5t30 141.5q0 90 -30 138t-103 48q-134 0 -134 -186zM175 530l96 117h74l-118 -117h-52z" />
<glyph unicode="&#xf4;" horiz-adv-x="497" d="M47 231q0 105 48 171t154 66q201 0 201 -237q0 -109 -47 -175.5t-154 -66.5t-154.5 66t-47.5 176zM115 231q0 -191 134 -191q73 0 103 49.5t30 141.5q0 90 -30 138t-103 48q-134 0 -134 -186zM133 537l89 110h58l87 -110h-54l-62 70l-64 -70h-54z" />
<glyph unicode="&#xf5;" horiz-adv-x="497" d="M47 231q0 105 48 171t154 66q201 0 201 -237q0 -109 -47 -175.5t-154 -66.5t-154.5 66t-47.5 176zM102 554q16 38 36 52.5t55 14.5q18 0 49 -18.5t44 -18.5q30 0 44 41l44 -20q-23 -66 -86 -66q-19 0 -50 19.5t-46 19.5q-32 0 -46 -43zM115 231q0 -191 134 -191 q73 0 103 49.5t30 141.5q0 90 -30 138t-103 48q-134 0 -134 -186z" />
<glyph unicode="&#xf6;" horiz-adv-x="497" d="M47 231q0 105 48 171t154 66q201 0 201 -237q0 -109 -47 -175.5t-154 -66.5t-154.5 66t-47.5 176zM115 231q0 -191 134 -191q73 0 103 49.5t30 141.5q0 90 -30 138t-103 48q-134 0 -134 -186zM138 554v73h65v-73h-65zM289 554v73h65v-73h-65z" />
<glyph unicode="&#xf7;" d="M35 191v54h417v-54h-417zM205 16v83h78v-83h-78zM205 349v83h78v-83h-78z" />
<glyph unicode="&#xf8;" horiz-adv-x="497" d="M13 18l63 66q-29 57 -29 147q0 105 48 171t154 66q89 0 136 -49l57 61l46 -44l-63 -68q25 -54 25 -137q0 -109 -47 -175.5t-154 -66.5q-83 0 -132 44l-57 -60zM115 231q0 -56 12 -92l217 236q-32 42 -95 42q-134 0 -134 -186zM158 77q32 -37 91 -37q73 0 103 49.5 t30 141.5q0 49 -8 81z" />
<glyph unicode="&#xf9;" horiz-adv-x="483" d="M70 169v288h65v-284q0 -41 6 -67t28.5 -46t63.5 -20t70 29.5t44 67.5v320h65v-360q0 -22 4.5 -54t5.5 -43h-57l-15 68q-1 -2 -10 -13t-14.5 -17t-18 -17t-23.5 -16.5t-27 -10.5t-33 -5q-154 0 -154 180zM136 647h74l96 -117h-52z" />
<glyph unicode="&#xfa;" horiz-adv-x="483" d="M54 169v288h65v-284q0 -41 6 -67t28.5 -46t63.5 -20t70 29.5t44 67.5v320h65v-360q0 -22 4.5 -54t5.5 -43h-57l-15 68q-1 -2 -10 -13t-14.5 -17t-18 -17t-23.5 -16.5t-27 -10.5t-33 -5q-154 0 -154 180zM150 530l96 117h74l-118 -117h-52z" />
<glyph unicode="&#xfb;" horiz-adv-x="483" d="M70 169v288h65v-284q0 -41 6 -67t28.5 -46t63.5 -20t70 29.5t44 67.5v320h65v-360q0 -22 4.5 -54t5.5 -43h-57l-15 68q-1 -2 -10 -13t-14.5 -17t-18 -17t-23.5 -16.5t-27 -10.5t-33 -5q-154 0 -154 180zM125 537l89 110h58l87 -110h-54l-62 70l-64 -70h-54z" />
<glyph unicode="&#xfc;" horiz-adv-x="483" d="M70 169v288h65v-284q0 -41 6 -67t28.5 -46t63.5 -20t70 29.5t44 67.5v320h65v-360q0 -22 4.5 -54t5.5 -43h-57l-15 68q-1 -2 -10 -13t-14.5 -17t-18 -17t-23.5 -16.5t-27 -10.5t-33 -5q-154 0 -154 180zM133 554v73h65v-73h-65zM284 554v73h65v-73h-65z" />
<glyph unicode="&#xfd;" horiz-adv-x="486" d="M40 457h70l146 -363l124 363h66l-191 -530q-20 -55 -49.5 -85t-89.5 -51l-21 57q71 19 88 65l40 106zM170 530l96 117h74l-118 -117h-52z" />
<glyph unicode="&#xfe;" horiz-adv-x="491" d="M61 -180q9 86 9 320v517h65v-268q18 30 55 54.5t78 24.5q91 0 133.5 -66.5t42.5 -170.5q0 -106 -48 -174t-145 -68q-76 0 -119 65l-14 -234h-57zM133 110q40 -70 112 -70q131 0 131 189q0 97 -32.5 142.5t-87.5 45.5q-77 0 -123 -98v-209z" />
<glyph unicode="&#xff;" horiz-adv-x="486" d="M40 457h70l146 -363l124 363h66l-191 -530q-20 -55 -49.5 -85t-89.5 -51l-21 57q71 19 88 65l40 106zM143 561v73h65v-73h-65zM294 561v73h65v-73h-65z" />
<glyph unicode="&#x152;" horiz-adv-x="937" d="M63 321q0 100 26 173t90 118.5t164 45.5q47 0 89 -11h425v-57h-331q72 -65 79 -227h231v-57h-230q-2 -174 -77 -249h337v-57h-419q-48 -17 -105 -17q-63 0 -111.5 17t-80 46.5t-51.5 72.5t-28 92.5t-8 109.5zM139 321q0 -137 46.5 -209t156.5 -72q55 0 93 20t58.5 59 t29 87.5t8.5 114.5q0 140 -41 210t-148 70q-110 0 -156.5 -71.5t-46.5 -208.5z" />
<glyph unicode="&#x153;" horiz-adv-x="813" d="M47 231q0 105 48 171t154 66q125 0 168 -101q45 101 153 101q109 0 151.5 -67t42.5 -195h-315q5 -167 133 -167q65 0 138 39l20 -54q-74 -35 -166 -35q-114 0 -158 101q-43 -101 -167 -101q-107 0 -154.5 66t-47.5 176zM115 231q0 -191 134 -191q73 0 103 49.5t30 141.5 q0 90 -30 138t-103 48q-134 0 -134 -186zM448 257h251q-2 82 -33 121t-95 39q-54 0 -86.5 -41t-36.5 -119z" />
<glyph unicode="&#x178;" horiz-adv-x="562" d="M16 647h83l189 -292l181 292h77l-225 -356v-291h-73v287zM183 722v74h64v-74h-64zM332 722v74h64v-74h-64z" />
<glyph unicode="&#x2c6;" horiz-adv-x="208" d="M-13 537l89 110h58l87 -110h-54l-62 70l-64 -70h-54z" />
<glyph unicode="&#x2dc;" horiz-adv-x="208" d="M-32 554q16 38 36 52.5t55 14.5q18 0 49 -18.5t44 -18.5q30 0 44 41l44 -20q-23 -66 -86 -66q-19 0 -50 19.5t-46 19.5q-32 0 -46 -43z" />
<glyph unicode="&#x2000;" horiz-adv-x="417" />
<glyph unicode="&#x2001;" horiz-adv-x="835" />
<glyph unicode="&#x2002;" horiz-adv-x="417" />
<glyph unicode="&#x2003;" horiz-adv-x="835" />
<glyph unicode="&#x2004;" horiz-adv-x="278" />
<glyph unicode="&#x2005;" horiz-adv-x="208" />
<glyph unicode="&#x2006;" horiz-adv-x="139" />
<glyph unicode="&#x2007;" horiz-adv-x="139" />
<glyph unicode="&#x2008;" horiz-adv-x="104" />
<glyph unicode="&#x2009;" horiz-adv-x="167" />
<glyph unicode="&#x200a;" horiz-adv-x="46" />
<glyph unicode="&#x2010;" horiz-adv-x="327" d="M29 214v58h269v-58h-269z" />
<glyph unicode="&#x2011;" horiz-adv-x="327" d="M29 214v58h269v-58h-269z" />
<glyph unicode="&#x2012;" horiz-adv-x="327" d="M29 214v58h269v-58h-269z" />
<glyph unicode="&#x2013;" horiz-adv-x="500" d="M-1 210v58h502v-58h-502z" />
<glyph unicode="&#x2014;" horiz-adv-x="1000" d="M-1 207v61h1002v-61h-1002z" />
<glyph unicode="&#x2018;" horiz-adv-x="244" d="M45 460l99 188h50l-85 -188h-64z" />
<glyph unicode="&#x2019;" horiz-adv-x="244" d="M48 459l84 188h65l-97 -188h-52z" />
<glyph unicode="&#x201a;" horiz-adv-x="244" d="M48 -88l84 188h65l-97 -188h-52z" />
<glyph unicode="&#x201c;" horiz-adv-x="364" d="M40 460l99 188h50l-85 -188h-64zM175 460l98 188h51l-85 -188h-64z" />
<glyph unicode="&#x201d;" horiz-adv-x="364" d="M40 459l85 188h64l-98 -188h-51zM174 459l85 188h65l-99 -188h-51z" />
<glyph unicode="&#x201e;" horiz-adv-x="364" d="M40 -88l85 188h64l-98 -188h-51zM174 -88l85 188h65l-99 -188h-51z" />
<glyph unicode="&#x2022;" d="M116 324q0 53 37.5 90t90.5 37t90 -37t37 -90t-37 -90.5t-90 -37.5q-54 0 -91 37t-37 91z" />
<glyph unicode="&#x2026;" horiz-adv-x="731" d="M83 0v83h78v-83h-78zM327 0v83h77v-83h-77zM570 0v83h78v-83h-78z" />
<glyph unicode="&#x202f;" horiz-adv-x="167" />
<glyph unicode="&#x2039;" horiz-adv-x="244" d="M42 270l93 182h64l-97 -180l96 -180h-63z" />
<glyph unicode="&#x203a;" horiz-adv-x="244" d="M48 452h64l93 -182l-93 -178h-63l96 180z" />
<glyph unicode="&#x205f;" horiz-adv-x="208" />
<glyph unicode="&#x2122;" horiz-adv-x="902" d="M83 611v36h273v-36h-114v-320h-47v320h-112zM406 292v355h69l127 -295l128 295h66v-355h-45v308l-133 -308h-36l-133 308v-308h-43z" />
<glyph unicode="&#xe000;" horiz-adv-x="455" d="M0 0v455h455v-455h-455z" />
<glyph unicode="&#xfb01;" horiz-adv-x="448" d="M15 406v51h69v49q0 129 148 159l22 -56q-56 -10 -80.5 -31.5t-24.5 -66.5v-54h84v-51h-84v-406h-65v406h-69zM308 569v78h72v-78h-72zM311 0v457h66v-457h-66z" />
<glyph unicode="&#xfb02;" horiz-adv-x="448" d="M15 406v51h69v49q0 129 148 159l22 -56q-56 -10 -80.5 -31.5t-24.5 -66.5v-54h84v-51h-84v-406h-65v406h-69zM313 0v657h65v-657h-65z" />
</font>
</defs>
</svg>
