<?xml version="1.0" standalone="no"?>
<!DOCTYPE svg PUBLIC "-//W3C//DTD SVG 1.1//EN" "http://www.w3.org/Graphics/SVG/1.1/DTD/svg11.dtd" >
<svg xmlns="http://www.w3.org/2000/svg">
<metadata></metadata>
<defs>
<font id="colaborate-mediumregular" horiz-adv-x="540" >
<font-face units-per-em="1000" ascent="800" descent="-200" />
<missing-glyph horiz-adv-x="270" />
<glyph horiz-adv-x="1000" />
<glyph horiz-adv-x="1000" />
<glyph unicode="&#xd;" horiz-adv-x="1000" />
<glyph unicode=" "  horiz-adv-x="270" />
<glyph unicode="&#x09;" horiz-adv-x="270" />
<glyph unicode="&#xa0;" horiz-adv-x="270" />
<glyph unicode="!" horiz-adv-x="270" d="M75 0v110h120v-110h-120zM79 182v465h112v-465h-112z" />
<glyph unicode="&#x22;" horiz-adv-x="400" d="M75 647h100l-8 -217h-84zM226 647h99l-8 -217h-83z" />
<glyph unicode="#" d="M16 171v79h105l24 139h-90v79h105l31 179h94l-31 -179h81l31 179h94l-31 -179h95v-79h-110l-24 -139h95v-79h-109l-30 -171h-94l30 171h-81l-30 -171h-94l30 171h-91zM215 250h81l24 139h-81z" />
<glyph unicode="$" d="M38 482q0 77 51 120.5t131 54.5v89h88v-87q85 -6 148 -27l-39 -106q-65 29 -109 35v-185q38 -14 64.5 -28t54.5 -38t42.5 -59.5t14.5 -82.5q0 -87 -46.5 -128.5t-129.5 -53.5v-84h-88v79q-70 1 -178 31l39 106q6 -2 26 -10t29.5 -11.5t25.5 -8.5t30 -7t28 -3v207 q-43 17 -67 29t-55 35t-45.5 56t-14.5 77zM162 482q0 -41 60 -71v146q-60 -16 -60 -75zM306 89q54 20 54 77q0 46 -54 79v-156z" />
<glyph unicode="%" horiz-adv-x="830" d="M43 488q0 172 144 172q79 0 112 -43.5t33 -128.5q0 -86 -33.5 -132.5t-112.5 -46.5q-78 0 -110.5 46t-32.5 133zM124 488q0 -65 12 -93t50 -28t51.5 30t13.5 91t-13 87.5t-51 26.5t-50.5 -29t-12.5 -85zM180 0l362 629h98l-363 -629h-97zM499 166q0 172 144 172 q79 0 111.5 -43.5t32.5 -128.5q0 -86 -33 -132.5t-112 -46.5q-78 0 -110.5 46t-32.5 133zM580 166q0 -65 12 -93t50 -28t51.5 30t13.5 91t-13 87.5t-51 26.5t-50.5 -29t-12.5 -85z" />
<glyph unicode="&#x26;" d="M46 181q0 130 108 185l-16 12q-15 11 -20 15.5t-18 18t-18.5 24t-10.5 26.5t-5 33q0 74 45 121t138 47q87 0 135 -41.5t48 -122.5q0 -89 -174 -164q-52 -22 -74 -57.5t-22 -94.5q0 -46 24 -79.5t79 -33.5q49 0 101 67v79h-88v80h200v-156q0 -27 8.5 -81t8.5 -59h-106 l-16 45q-17 -24 -53.5 -42.5t-66.5 -18.5q-87 0 -147 46.5t-60 150.5zM179 496q0 -12 3.5 -22.5t10.5 -20t12.5 -15.5t15 -14.5t12.5 -11.5q39 17 62.5 37t23.5 51q0 77 -72 77q-68 0 -68 -81z" />
<glyph unicode="'" horiz-adv-x="270" d="M85 647h100l-8 -217h-84z" />
<glyph unicode="(" horiz-adv-x="315" d="M54 254q0 130 22.5 211t78.5 182h103q-53 -97 -72 -181t-19 -212q0 -112 19 -194.5t77 -187.5h-103q-63 109 -84.5 188.5t-21.5 193.5z" />
<glyph unicode=")" horiz-adv-x="315" d="M54 -128q58 105 77 187.5t19 194.5q0 128 -19 212t-72 181h103q56 -101 78.5 -182t22.5 -211q0 -114 -21.5 -193.5t-84.5 -188.5h-103z" />
<glyph unicode="*" horiz-adv-x="430" d="M10 474l23 71l148 -55l9 7l-7 153h70l-7 -156l8 -5l147 54l19 -70l-150 -36l-1 -9l98 -128l-58 -41l-85 132h-10l-88 -133l-58 44l99 126l-3 9z" />
<glyph unicode="+" d="M52 178v86h170v167h96v-167h170v-86h-170v-178h-96v178h-170z" />
<glyph unicode="," horiz-adv-x="270" d="M28 -103l47 178h120l-81 -178h-86z" />
<glyph unicode="-" horiz-adv-x="350" d="M27 178v94h296v-94h-296z" />
<glyph unicode="." horiz-adv-x="270" d="M75 0v110h120v-110h-120z" />
<glyph unicode="/" horiz-adv-x="300" d="M-4 -11l213 668h95l-211 -668h-97z" />
<glyph unicode="0" d="M38 308q0 153 54 233t177 80q130 0 181.5 -78.5t51.5 -234.5q0 -77 -11 -133.5t-36.5 -101.5t-72 -67.5t-114.5 -22.5q-129 0 -179.5 82.5t-50.5 242.5zM164 308q0 -49 1.5 -79t7 -62.5t16.5 -49.5t31 -28.5t48 -11.5t48 11.5t31.5 30.5t18 50.5t8.5 62.5t2 76 q0 118 -20 168.5t-87 50.5q-35 0 -57 -16.5t-32 -50.5t-13 -67t-3 -85z" />
<glyph unicode="1" d="M114 487l156 120h122v-608h-126v488l-114 -91z" />
<glyph unicode="2" d="M48 103q7 5 35.5 25.5t43 31.5t44 33t47 37.5t42.5 37.5t39.5 40t29.5 38t22 38.5t7 35.5q0 108 -98 108q-61 0 -155 -50l-37 103q75 26 110 33.5t84 7.5q44 0 81.5 -9.5t70.5 -31t51.5 -61.5t18.5 -96q0 -45 -27 -95t-71.5 -94.5t-85.5 -78t-84 -62.5h280v-94h-413z" />
<glyph unicode="3" d="M40 9l37 103q22 -11 67.5 -23t88.5 -12q51 0 80.5 27t29.5 67q0 27 -9 46t-24 30t-41 17t-51.5 7.5t-64.5 1.5v92q97 0 136 15t39 71q0 77 -89 77q-57 0 -151 -46l-37 103q31 15 91 26t101 11q211 0 211 -169q0 -59 -39 -92.5t-98 -40.5q63 -10 107.5 -46t44.5 -104 q0 -53 -21.5 -91.5t-57.5 -58t-75.5 -28.5t-84.5 -9q-115 0 -190 26z" />
<glyph unicode="4" d="M15 257l271 350h136v-351h96v-95h-96v-161h-124v161h-242zM117 256h181v234z" />
<glyph unicode="5" d="M47 7l37 103q82 -33 160 -33q121 0 121 121q0 101 -91 101q-15 0 -29.5 -2t-23 -4t-22 -8t-17 -8l-17.5 -10t-15 -9l-81 31v318h395v-94h-271v-133q39 15 90 15q95 0 150.5 -50t55.5 -149q0 -100 -70.5 -156.5t-175.5 -56.5q-123 0 -196 24z" />
<glyph unicode="6" d="M45 283q0 63 15 121t45.5 108t84 80t122.5 30q74 0 145 -19l-37 -103q-56 28 -103 28q-80 0 -117 -58t-37 -139q19 37 57 55.5t68 18.5q103 0 154.5 -57t51.5 -164q0 -88 -64 -144.5t-153 -56.5q-232 0 -232 300zM172 236q0 -93 27 -126t79 -33q39 0 64.5 27t25.5 80v6 q0 24 -2 39.5t-9.5 37t-27 33t-50.5 11.5q-78 0 -107 -75z" />
<glyph unicode="7" d="M53 513v93h382l39 -80l-215 -526h-134l237 513h-309z" />
<glyph unicode="8" d="M38 155q0 132 146 165q-63 24 -88 49q-37 36 -37 87q0 79 54 122.5t160 43.5q113 0 163.5 -39.5t50.5 -125.5q0 -43 -26 -75t-53 -45t-52 -18q73 -19 109.5 -57.5t36.5 -106.5q0 -172 -234 -172q-230 0 -230 172zM161 158q0 -37 26 -59.5t81 -22.5q111 0 111 82 q0 47 -29 73.5t-79 43.5q-54 -18 -82 -42.5t-28 -74.5zM181 452q0 -60 88 -90q96 31 96 90q0 37 -19.5 57t-72.5 20q-52 0 -72 -19.5t-20 -57.5z" />
<glyph unicode="9" d="M46 420q0 88 65.5 145t151.5 57q57 0 99.5 -17.5t67 -45t40 -68.5t20.5 -80.5t5 -88.5q0 -63 -15 -121t-45.5 -108t-84 -80t-122.5 -30q-74 0 -145 19l37 103q56 -28 103 -28q80 0 117 58t37 139q-19 -37 -57 -55.5t-68 -18.5q-103 0 -154.5 56.5t-51.5 163.5zM172 414 q0 -18 1 -30.5t5.5 -31t13.5 -30t26.5 -20t42.5 -8.5q78 0 107 75q0 93 -27 126t-79 33q-39 0 -64.5 -27.5t-25.5 -80.5v-6z" />
<glyph unicode=":" horiz-adv-x="270" d="M75 0v110h120v-110h-120zM75 342v110h120v-110h-120z" />
<glyph unicode=";" horiz-adv-x="270" d="M28 -103l47 178h120l-81 -178h-86zM75 342v110h120v-110h-120z" />
<glyph unicode="&#x3c;" d="M45 184v120l450 149v-109l-337 -100l337 -98v-109z" />
<glyph unicode="=" d="M45 69v86h450v-86h-450zM45 242v86h450v-86h-450z" />
<glyph unicode="&#x3e;" d="M45 37v109l337 100l-337 98v109l450 -147v-120z" />
<glyph unicode="?" horiz-adv-x="460" d="M51 627q33 11 87 20.5t89 9.5q30 0 53.5 -2.5t53 -12.5t49 -27t33 -49t13.5 -76q0 -33 -17 -60.5t-41 -47t-48.5 -38t-41.5 -41t-17 -47.5v-80h-112v85q0 38 16 67.5t39 48.5t46 35t39 35.5t16 42.5q0 37 -17.5 53.5t-63.5 16.5q-29 0 -80.5 -11t-77.5 -24zM148 0v110 h120v-110h-120z" />
<glyph unicode="@" horiz-adv-x="900" d="M80 320q0 114 55.5 192.5t144 113t202.5 34.5q44 0 88.5 -8.5t90 -29t80.5 -51.5t57 -80t22 -110q0 -72 -27 -123.5t-74.5 -79t-102.5 -40t-120 -12.5q-114 0 -174 50.5t-60 145.5q0 84 52 137t158 53q64 0 109 -14v-153h20l31 -82l-153 -13v171q-8 5 -16 5 q-90 0 -90 -104q0 -114 125 -114q50 0 83 5.5t64.5 22.5t46.5 52.5t15 91.5t-20 96t-54.5 60t-71 28.5t-79.5 8.5q-34 0 -67 -4.5t-75 -20.5t-73 -42t-52.5 -74t-21.5 -112q0 -65 22 -113.5t53.5 -74.5t75 -41t75.5 -19t67 -4q88 0 213 32l39 -93q-118 -26 -255 -26 q-182 0 -292.5 85.5t-110.5 253.5z" />
<glyph unicode="A" horiz-adv-x="681" d="M29 0l263 647h116l244 -647h-139l-58 173h-231l-61 -173h-134zM259 268h164l-79 239z" />
<glyph unicode="B" horiz-adv-x="625" d="M94 0v647h229q218 0 218 -178q0 -49 -28.5 -83t-74.5 -47q62 -9 97.5 -46.5t35.5 -103.5q0 -189 -215 -189h-262zM220 97h130q92 0 92 92q0 96 -103 96h-119v-188zM220 381h117q34 0 55 22.5t21 64.5q0 82 -90 82h-103v-169z" />
<glyph unicode="C" horiz-adv-x="575" d="M59 323q0 71 15.5 129t49 106.5t94 75t143.5 26.5q91 0 171 -26l-39 -106q-82 35 -132 35q-92 0 -132 -60.5t-40 -178.5q0 -124 38.5 -185t127.5 -61q11 0 21.5 1t22 3.5t19.5 4.5t21 6.5t18.5 7t21.5 9t21 8.5l39 -106q-88 -31 -182 -31q-298 0 -298 342z" />
<glyph unicode="D" horiz-adv-x="673" d="M94 0v647h211q160 0 234.5 -74t74.5 -247q0 -176 -73.5 -251t-235.5 -75h-211zM220 97h94q84 0 127 48t43 180q0 74 -13 121t-40 68.5t-55 28.5t-71 7h-85v-453z" />
<glyph unicode="E" horiz-adv-x="581" d="M94 0v647h384v-97h-258v-167h237v-97h-237v-189h267v-97h-393z" />
<glyph unicode="F" horiz-adv-x="530" d="M94 0v647h384v-98h-258v-170h246v-96h-246v-283h-126z" />
<glyph unicode="G" horiz-adv-x="634" d="M59 324q0 157 75 246.5t232 89.5q63 0 163 -26l-39 -106q-80 35 -123 35q-86 0 -132 -53t-46 -186q0 -124 38 -185t133 -61q60 0 103 25v146h-143v97h255v-307q-53 -31 -101 -44.5t-117 -13.5q-298 0 -298 343z" />
<glyph unicode="H" horiz-adv-x="692" d="M94 0v647h126v-264h252v264h126v-647h-126v285h-252v-285h-126z" />
<glyph unicode="I" horiz-adv-x="290" d="M82 0v647h126v-647h-126z" />
<glyph unicode="J" horiz-adv-x="443" d="M14 0q7 1 27.5 5t29.5 6t27.5 7t28 9.5t25 12.5t24 17.5t19 23t15.5 29.5t9 37.5t4 46.5v453h126v-443q0 -46 -10.5 -85t-25.5 -66.5t-41.5 -51t-49 -38t-58 -29t-58 -21.5t-59.5 -17z" />
<glyph unicode="K" horiz-adv-x="659" d="M94 0v647h126v-273l239 273h142l-264 -304l308 -343h-163l-262 295v-295h-126z" />
<glyph unicode="L" horiz-adv-x="495" d="M94 0v647h126v-547h269v-100h-395z" />
<glyph unicode="M" horiz-adv-x="925" d="M94 0v647h207l164 -478l168 478h198v-647h-124v513l-182 -513h-129l-182 513v-513h-120z" />
<glyph unicode="N" horiz-adv-x="727" d="M94 0v647h187l228 -498v498h124v-647h-189l-230 498v-498h-120z" />
<glyph unicode="O" horiz-adv-x="725" d="M59 321q0 154 73 246.5t233 92.5q301 0 301 -339q0 -156 -71.5 -248t-230.5 -92q-305 0 -305 340zM189 321q0 -131 41.5 -187t133.5 -56q91 0 131.5 59.5t40.5 183.5q0 128 -41.5 185t-130.5 57q-90 0 -132.5 -58t-42.5 -184z" />
<glyph unicode="P" horiz-adv-x="600" d="M94 0v647h227q229 0 229 -194q0 -200 -218 -200h-112v-253h-126zM220 350h104q98 0 98 103q0 60 -27.5 78.5t-75.5 18.5h-99v-200z" />
<glyph unicode="Q" horiz-adv-x="725" d="M59 321q0 155 72.5 247t233.5 92q301 0 301 -339q0 -156 -71.5 -248t-230.5 -92q-305 0 -305 340zM189 321q0 -131 41.5 -187t133.5 -56q91 0 131.5 59.5t40.5 183.5q0 128 -41.5 185t-130.5 57q-90 0 -132.5 -58t-42.5 -184zM323 -113l43 70l226 -21l-43 -83z" />
<glyph unicode="R" horiz-adv-x="642" d="M94 0v647h242q43 0 78.5 -8t69 -27.5t52.5 -58t19 -93.5q0 -72 -37.5 -123t-122.5 -64l204 -273h-154l-197 269h-28v-269h-126zM220 366h122q42 0 63.5 26t21.5 68t-21.5 66t-64.5 24h-121v-184z" />
<glyph unicode="S" horiz-adv-x="594" d="M64 12l39 106q107 -40 156 -40q68 0 103 18.5t35 69.5q0 10 -2.5 19.5t-6 17t-11 15t-13 12.5t-17 12t-18 10.5t-22 9.5t-22 8.5t-24 9.5t-23.5 9q-39 15 -64.5 28.5t-53.5 36t-42 54.5t-14 74q0 61 39 102.5t93.5 58.5t118.5 17q100 0 182 -28l-39 -106q-86 37 -146 37 q-64 0 -92 -23.5t-28 -57.5q0 -18 8.5 -31.5t28.5 -25t35 -18t47 -17.5q7 -3 11 -4q45 -16 72.5 -29t62 -38t51.5 -63t17 -88q0 -187 -267 -187q-80 0 -194 31z" />
<glyph unicode="T" horiz-adv-x="526" d="M22 549v98h482v-98h-178v-549h-126v549h-178z" />
<glyph unicode="U" horiz-adv-x="723" d="M94 239v408h126v-398q0 -100 39 -135.5t109 -35.5q135 0 135 171v398h126v-410q0 -127 -67 -191.5t-194 -64.5q-274 0 -274 258z" />
<glyph unicode="V" horiz-adv-x="652" d="M28 647h139l166 -492l157 492h134l-236 -647h-116z" />
<glyph unicode="W" horiz-adv-x="967" d="M34 647h133l108 -494l142 467h156l118 -467l119 494h123l-166 -647h-156l-126 452l-148 -452h-156z" />
<glyph unicode="X" horiz-adv-x="632" d="M30 0l216 334l-190 313h145l119 -203l127 203h135l-198 -308l212 -339h-149l-134 234l-148 -234h-135z" />
<glyph unicode="Y" horiz-adv-x="619" d="M14 647h143l157 -248l155 248h136l-233 -356v-291h-126v287z" />
<glyph unicode="Z" horiz-adv-x="561" d="M43 102l339 447h-302v98h405l33 -102l-338 -447h330v-98h-434z" />
<glyph unicode="[" horiz-adv-x="305" d="M83 -127v803h175v-80h-79v-640h79v-83h-175z" />
<glyph unicode="\" horiz-adv-x="300" d="M-4 657h95l213 -668h-97z" />
<glyph unicode="]" horiz-adv-x="305" d="M57 -44h79v640h-79v80h175v-803h-175v83z" />
<glyph unicode="^" d="M32 269l181 378h110l185 -378h-105l-134 292l-135 -292h-102z" />
<glyph unicode="_" horiz-adv-x="500" d="M-1 -30h502v-86h-502v86z" />
<glyph unicode="`" horiz-adv-x="247" d="M19 647h113l96 -117h-78z" />
<glyph unicode="a" horiz-adv-x="522" d="M43 120q0 167 251 167h38v22q0 33 -13 53.5t-52 20.5q-83 0 -167 -40l-39 93q94 34 212 34q79 0 126 -37t47 -109v-184q0 -21 8 -74t10 -66h-107l-17 46q-61 -59 -119 -59q-87 0 -132.5 34t-45.5 99zM161 125q0 -51 81 -51q57 0 91 47v90h-25q-78 0 -112.5 -21.5 t-34.5 -64.5z" />
<glyph unicode="b" horiz-adv-x="531" d="M54 0q12 93 12 140v517h113v-260q53 73 120 73q97 0 143 -67.5t46 -171.5t-53.5 -174t-151.5 -70q-38 0 -65.5 18.5t-41.5 40.5l-18 -46h-104zM177 138q30 -64 88 -64q107 0 107 155q0 154 -94 154q-33 0 -55.5 -23t-45.5 -65v-157z" />
<glyph unicode="c" horiz-adv-x="464" d="M43 225q0 114 58 179.5t171 65.5q29 0 78 -10.5t76 -21.5l-39 -93q-76 38 -116 38q-58 0 -85 -36t-27 -122q0 -151 111 -151q47 0 121 38l39 -93q-25 -12 -78.5 -22t-82.5 -10q-109 0 -167.5 65t-58.5 173z" />
<glyph unicode="d" horiz-adv-x="531" d="M43 231q0 103 48 171t141 68q67 0 120 -73v260h113v-517q0 -47 12 -140h-104l-18 46q-14 -22 -41.5 -40.5t-65.5 -18.5q-107 0 -156 68t-49 176zM159 229q0 -87 26 -121t81 -34q58 0 88 64v157q-23 42 -45.5 65t-55.5 23q-94 0 -94 -154z" />
<glyph unicode="e" horiz-adv-x="521" d="M43 224q0 43 10.5 83.5t34 78.5t68 61t104.5 23q117 0 166.5 -69t49.5 -216h-314q7 -55 35 -84.5t75 -29.5q65 0 143 39l37 -87q-79 -36 -188 -36q-106 0 -163.5 68t-57.5 169zM162 266h205q-7 117 -108 117q-36 0 -65 -26.5t-32 -90.5z" />
<glyph unicode="f" horiz-adv-x="334" d="M11 370v87h69v13q0 50 21.5 89.5t56.5 63t72.5 36.5t75.5 16l28 -93q-71 -7 -106 -31t-35 -72v-22h104v-87h-104v-370h-113v370h-69z" />
<glyph unicode="g" horiz-adv-x="545" d="M38 -72q0 57 74 87q-58 26 -58 85q0 41 53 80q-46 58 -46 117q0 25 8 50.5t27.5 55t64 48.5t107.5 19q32 0 77 -9q123 10 172 12l-29 -76h-56q46 -46 46 -101q0 -32 -10.5 -61t-33 -55.5t-65 -42.5t-99.5 -16q-17 0 -50.5 5t-49.5 12q-21 -11 -21 -33q0 -18 26.5 -26 t110.5 -15q130 -10 177 -41.5t47 -91.5q0 -36 -20 -62.5t-54.5 -41t-74 -21.5t-85.5 -7q-129 0 -183.5 33.5t-54.5 95.5zM154 -68q0 -23 36 -36.5t86 -13.5q67 0 92.5 10.5t25.5 38.5q0 41 -207 46q-33 -16 -33 -45zM177 295q0 -89 94 -89q48 0 69.5 27.5t21.5 65.5 q0 41 -23 63.5t-69 22.5q-93 0 -93 -90z" />
<glyph unicode="h" horiz-adv-x="529" d="M66 0v657h113v-260q55 74 119 74q94 0 129.5 -47.5t35.5 -135.5v-288h-113v293q0 21 -2 34t-8.5 27.5t-21.5 22t-39 7.5q-56 0 -100 -86v-298h-113z" />
<glyph unicode="i" horiz-adv-x="247" d="M64 549v98h119v-98h-119zM67 0v457h113v-457h-113z" />
<glyph unicode="j" horiz-adv-x="244" d="M-30 -103q52 11 72.5 33t20.5 67v460h113v-451q0 -81 -44.5 -128t-122.5 -74zM59 549v98h121v-98h-121z" />
<glyph unicode="k" horiz-adv-x="487" d="M66 0v657h113v-380l150 180h122l-166 -198l190 -259h-130l-166 229v-229h-113z" />
<glyph unicode="l" horiz-adv-x="245" d="M66 0v657h113v-657h-113z" />
<glyph unicode="m" horiz-adv-x="810" d="M54 457h104l18 -61q17 25 51 50t70 25q57 0 86 -16t60 -58q46 74 140 74q161 0 161 -179v-292h-113v290q0 51 -15 72.5t-50 21.5q-38 0 -65.5 -26t-41.5 -65v-293h-113v290q0 55 -16 74.5t-54 19.5q-31 0 -57 -27.5t-40 -57.5v-299h-113v352q0 22 -5.5 58.5t-6.5 46.5z " />
<glyph unicode="n" horiz-adv-x="529" d="M54 457h104l18 -60q2 2 11 12.5t15 16t18 15.5t22.5 15.5t25.5 10t30 4.5q94 0 129.5 -47.5t35.5 -135.5v-288h-113v293q0 21 -2 34t-8.5 27.5t-21.5 22t-39 7.5q-58 0 -100 -86v-298h-113v360q0 17 -2 33t-5.5 34.5t-4.5 29.5z" />
<glyph unicode="o" horiz-adv-x="537" d="M43 231q0 105 55.5 172.5t170.5 67.5q117 0 171 -66t54 -174q0 -51 -12.5 -94t-38 -77.5t-70.5 -54t-104 -19.5q-116 0 -171 68.5t-55 176.5zM159 231q0 -158 110 -158q109 0 109 158q0 83 -25.5 118t-83.5 35q-56 0 -83 -35.5t-27 -117.5z" />
<glyph unicode="p" horiz-adv-x="531" d="M54 457h104l20 -60q53 74 114 74q101 0 148.5 -68.5t47.5 -176.5q0 -103 -48 -171.5t-141 -68.5q-33 0 -67 16.5t-53 42.5v-225h-113v497q0 47 -12 140zM177 139q37 -66 101 -66q94 0 94 155q0 87 -26 121.5t-81 34.5q-48 0 -88 -85v-160z" />
<glyph unicode="q" horiz-adv-x="531" d="M43 226q0 106 49.5 175.5t146.5 69.5q38 0 68.5 -23.5t45.5 -50.5l20 60h104q-12 -93 -12 -140v-497h-113v225q-19 -26 -53 -42.5t-67 -16.5q-67 0 -111 34.5t-61 86t-17 119.5zM159 228q0 -155 94 -155q64 0 101 66v160q-40 85 -90 85q-54 0 -79.5 -34.5t-25.5 -121.5z " />
<glyph unicode="r" horiz-adv-x="390" d="M54 457h104l18 -78q17 30 49.5 61t64.5 31q45 0 87 -22l-39 -93q-37 28 -66 28q-9 0 -17 -2.5t-15 -8.5t-13 -11.5t-12 -15t-10 -15.5t-9 -17.5t-7 -15.5t-6 -14l-4 -11v-273h-113v355q0 20 -2 39t-5.5 38.5t-4.5 24.5z" />
<glyph unicode="s" horiz-adv-x="451" d="M38 18l39 93q9 -3 34 -13t35.5 -13.5t30 -7.5t38.5 -4q48 0 63.5 13.5t15.5 37.5q0 14 -14 24.5t-29 16t-46 14.5q-35 10 -56 19t-48 26t-40.5 45t-13.5 66q0 136 194 136q66 0 157 -29l-39 -93q-3 2 -14 7t-14 6t-12.5 5t-13 5t-11 4t-12.5 4t-12 2t-14 1.5t-14 0.5 q-79 0 -79 -46q0 -14 13 -25t27.5 -16.5t44.5 -14.5q29 -9 45 -14.5t42 -19t39.5 -28.5t24.5 -39.5t11 -55.5q0 -51 -30 -83.5t-72 -44t-95 -11.5q-86 0 -175 32z" />
<glyph unicode="t" horiz-adv-x="335" d="M13 370v88h76v122h113v-122h107v-88h-107v-259q0 -46 31 -71t93 -40l-30 -97q-90 23 -148.5 78.5t-58.5 138.5v250h-76z" />
<glyph unicode="u" horiz-adv-x="522" d="M66 169v288h113v-293q0 -20 2 -33.5t8 -28t21 -22t37 -7.5q54 0 96 86v298h113v-360q0 -17 2 -33t5.5 -34.5t4.5 -29.5h-104l-18 60q-2 -2 -13 -15t-19 -20.5t-21.5 -18t-30 -15.5t-34.5 -5q-89 0 -125.5 48t-36.5 135z" />
<glyph unicode="v" horiz-adv-x="537" d="M36 457h121l115 -324l111 324h118l-177 -457h-111z" />
<glyph unicode="w" horiz-adv-x="797" d="M30 457h120l101 -319l101 279h111l96 -279l92 319h116l-151 -457h-118l-94 280l-104 -280h-119z" />
<glyph unicode="x" horiz-adv-x="494" d="M23 0l165 231l-154 226h127l90 -143l94 143h118l-156 -219l164 -238h-127l-98 152l-104 -152h-119z" />
<glyph unicode="y" horiz-adv-x="530" d="M36 457h121l117 -311l102 311h118l-191 -530q-23 -63 -63.5 -105.5t-110.5 -66.5l-38 93q71 19 88 65l40 106z" />
<glyph unicode="z" horiz-adv-x="444" d="M26 93l265 277h-233v87h321l39 -93l-262 -277h246v-87h-337z" />
<glyph unicode="{" horiz-adv-x="390" d="M48 222v87q31 1 47.5 19.5t21.5 48t8 64.5t11.5 70.5t25.5 65t56 49t98 21.5v-87q-41 0 -61 -24.5t-24.5 -62.5t-8 -78t-21.5 -77t-55 -54q38 -14 56.5 -50t21.5 -76.5t7.5 -79t24 -64t60.5 -25.5v-87q-68 2 -109 27.5t-54 62t-20.5 79.5t-10 80t-20.5 62.5t-54 28.5z " />
<glyph unicode="|" horiz-adv-x="270" d="M87 -166v868h96v-868h-96z" />
<glyph unicode="}" horiz-adv-x="390" d="M74 -31q41 0 60.5 25.5t24 64t7.5 79t21.5 76.5t56.5 50q-37 17 -55 54t-21.5 77t-8 78t-24.5 62.5t-61 24.5v87q59 -2 98 -21.5t56 -49t25.5 -65t11.5 -70.5t8 -64.5t21.5 -48t47.5 -19.5v-87q-36 -3 -54 -28.5t-20.5 -62.5t-10 -80t-20.5 -79.5t-54 -62t-109 -27.5v87z " />
<glyph unicode="~" d="M29 205q0 53 36 89t100 36q43 0 84.5 -22t69 -44t35.5 -22q36 0 52 15.5t16 59.5l89 -48q0 -53 -36.5 -89t-101.5 -36q-39 0 -79 22.5t-68.5 45t-40.5 22.5q-35 0 -51 -16.5t-16 -60.5z" />
<glyph unicode="&#xa1;" horiz-adv-x="270" d="M75 537v110h120v-110h-120zM79 0v465h112v-465h-112z" />
<glyph unicode="&#xa2;" horiz-adv-x="459" d="M43 225q0 101 45 164t133 77v94h91v-94q58 -9 109 -28l-39 -93q-35 18 -70 30v-294q29 8 74 31l39 -93q-31 -15 -113 -28v-91h-91v91q-87 14 -132.5 76.5t-45.5 157.5zM159 225q0 -112 62 -141v291q-62 -25 -62 -150z" />
<glyph unicode="&#xa3;" d="M44 299v87h75v6q0 64 17.5 112.5t44.5 77t69.5 48.5t80.5 28.5t90 14.5l33 -104q-97 -5 -132 -20q-76 -34 -77 -157v-6h151v-87h-151v-199h273v-100h-463v100h64v199h-75z" />
<glyph unicode="&#xa4;" d="M-1 209l31 97h69v43h-100l31 97h81q47 214 280 214q91 0 171 -26l-33 -103q-75 32 -138 32q-120 0 -150 -117h261l-31 -97h-242v-43h229l-31 -97h-189q12 -66 47 -98.5t100 -32.5q13 0 27 2t25 4.5t27 8.5l24 9t26.5 10.5t25.5 10.5v-118q-70 -24 -153 -24 q-238 0 -279 228h-109z" />
<glyph unicode="&#xa5;" d="M0 647h140l134 -251l134 251h132l-186 -319h104v-86h-126v-51h126v-86h-126v-105h-126v105h-126v86h126v51h-126v86h103z" />
<glyph unicode="&#xa6;" horiz-adv-x="270" d="M87 -78v234h96v-234h-96zM87 359v234h96v-234h-96z" />
<glyph unicode="&#xa7;" horiz-adv-x="451" d="M35 333q0 73 56 104q-40 35 -40 87q0 136 194 136q58 0 147 -29l-39 -92q-3 1 -23.5 11t-27.5 12.5t-23.5 6.5t-32.5 4q-79 0 -79 -46q0 -20 25.5 -33.5t62 -24t73.5 -25.5t62.5 -48t25.5 -82q0 -65 -49 -101q29 -34 29 -90q0 -51 -29.5 -83.5t-71 -44t-94.5 -11.5 q-70 0 -160 32l39 93q8 -3 27.5 -12.5t30 -13.5t28.5 -8t37 -4q48 0 62.5 13t14.5 38q0 21 -25 34.5t-61 23t-72.5 24t-61.5 47t-25 82.5zM149 334q0 -11 6.5 -19.5t22 -15.5t27.5 -11.5t36 -12t36 -11.5q25 15 25 49q0 15 -8 26t-27.5 20.5t-34 15t-45.5 14.5 q-38 -13 -38 -55z" />
<glyph unicode="&#xa8;" horiz-adv-x="247" d="M-7 554v93h102v-93h-102zM152 554v93h102v-93h-102z" />
<glyph unicode="&#xa9;" horiz-adv-x="720" d="M25 324q0 141 97 237.5t238 96.5q143 0 239 -96t96 -238q0 -141 -97 -237.5t-238 -96.5t-238 96.5t-97 237.5zM94 324q0 -111 77.5 -191t188.5 -80t188.5 80t77.5 191q0 112 -77 191.5t-189 79.5q-113 0 -189.5 -79t-76.5 -192zM183 322q0 90 42.5 146t138.5 56 q60 0 103 -15l-24 -64q-48 21 -79 21q-55 0 -79 -36t-24 -107q0 -74 23 -111t77 -37q30 0 87 24l23 -64q-51 -18 -109 -18q-179 0 -179 205z" />
<glyph unicode="&#xaa;" d="M142 457q0 94 151 94h22v12q0 17 -7.5 26t-31.5 9q-52 0 -100 -22l-23 55q59 19 127 19q48 0 78.5 -20.5t30.5 -59.5v-102q0 -9 2 -21.5t5 -29t4 -26.5h-70l-10 26q-38 -33 -71 -33q-107 0 -107 73zM215 460q0 -24 46 -24q33 0 55 28v38h-15q-48 0 -67 -9.5t-19 -32.5z " />
<glyph unicode="&#xab;" horiz-adv-x="410" d="M23 270l93 182h104l-97 -180l96 -180h-103zM191 270l93 182h104l-97 -180l96 -180h-103z" />
<glyph unicode="&#xac;" d="M30 262v86h475v-260h-96v174h-379z" />
<glyph unicode="&#xad;" horiz-adv-x="350" d="M27 178v94h296v-94h-296z" />
<glyph unicode="&#xae;" horiz-adv-x="720" d="M25 324q0 141 97 237.5t238 96.5q143 0 239 -96t96 -238q0 -141 -97 -237.5t-238 -96.5t-238 96.5t-97 237.5zM94 324q0 -111 77.5 -191t188.5 -80t188.5 80t77.5 191q0 112 -77 191.5t-189 79.5q-113 0 -189.5 -79t-76.5 -192zM220 129v390h145q56 0 94 -25.5t38 -88.5 q0 -98 -96 -112l122 -164h-92l-119 162h-16v-162h-76zM296 349h73q25 0 38 15.5t13 40.5q0 54 -52 54h-72v-110z" />
<glyph unicode="&#xaf;" horiz-adv-x="247" d="M-6 544v83h259v-83h-259z" />
<glyph unicode="&#xb0;" horiz-adv-x="430" d="M45 448q0 72 50 120t120 48t120 -48t50 -120q0 -71 -50 -118t-121 -47q-70 0 -119.5 46.5t-49.5 118.5zM118 448q0 -39 28.5 -67.5t67.5 -28.5t68 28.5t29 67.5q0 43 -27 71t-69 28t-69.5 -28t-27.5 -71z" />
<glyph unicode="&#xb1;" d="M45 0v86h450v-86h-450zM52 238v86h170v107h96v-107h170v-86h-170v-118h-96v118h-170z" />
<glyph unicode="&#xb2;" horiz-adv-x="365" d="M45 379q8 5 41 26t52.5 35t45.5 34.5t39 39.5t13 35q0 32 -16.5 42.5t-45.5 10.5q-39 0 -94 -27l-22 62q73 23 117 23q59 0 101 -25.5t42 -83.5q0 -20 -13.5 -42.5t-29 -38.5t-45 -37.5t-43 -30.5t-41.5 -26h173v-58h-253z" />
<glyph unicode="&#xb3;" horiz-adv-x="365" d="M49 323l22 62q38 -19 94 -19q31 0 50 13t19 33q0 33 -28.5 43.5t-88.5 10.5v55q58 0 83 8.5t25 36.5q0 36 -56 36q-35 0 -91 -25l-22 63q43 20 115 20q64 0 99.5 -23.5t35.5 -69.5q0 -32 -23.5 -50.5t-59.5 -22.5q37 -5 64.5 -25.5t27.5 -57.5q0 -38 -25.5 -62t-57 -32 t-69.5 -8q-69 0 -114 14z" />
<glyph unicode="&#xb4;" horiz-adv-x="247" d="M19 530l96 117h113l-131 -117h-78z" />
<glyph unicode="&#xb6;" d="M40 453q0 24 3.5 47t16 51t32.5 48t56 34t83 14h285v-835h-96v748h-100q-48 0 -78.5 -31.5t-30.5 -88.5q0 -44 30.5 -78t67.5 -44v-506h-96v446q-88 14 -130.5 70.5t-42.5 124.5z" />
<glyph unicode="&#xb7;" horiz-adv-x="270" d="M80 216v111h110v-111h-110z" />
<glyph unicode="&#xb8;" horiz-adv-x="247" d="M0 -207l24 78q64 -8 75 -8q48 0 48 37q0 20 -15 28t-65 8l21 79h89l-10 -40q34 0 52 -23t18 -50q0 -55 -40.5 -86t-92.5 -31q-46 0 -104 8z" />
<glyph unicode="&#xb9;" horiz-adv-x="365" d="M78 581l93 66h74v-334h-81v263l-63 -50z" />
<glyph unicode="&#xba;" d="M132 528q0 57 35 94.5t104 37.5q71 0 105 -36.5t34 -95.5q0 -58 -35 -96.5t-104 -38.5q-70 0 -104.5 38t-34.5 97zM205 528q0 -83 66 -83q65 0 65 83q0 44 -16.5 62t-48.5 18q-66 0 -66 -80z" />
<glyph unicode="&#xbb;" horiz-adv-x="410" d="M23 452h104l93 -182l-93 -178h-103l96 180zM191 452h104l93 -182l-93 -178h-103l96 180z" />
<glyph unicode="&#xbc;" horiz-adv-x="830" d="M64 581l93 66h82l-8 -334h-81v263l-63 -50zM142 0l362 629h98l-363 -629h-97zM424 144l163 190h87v-190h54v-58h-54v-86h-80v86h-145zM491 144h103v119z" />
<glyph unicode="&#xbd;" horiz-adv-x="830" d="M60 581l93 66h81l-7 -334h-81v263l-63 -50zM137 0l370 629h90l-363 -629h-97zM486 61q8 5 41 26t52.5 35t45.5 34.5t39 39.5t13 35q0 32 -16.5 42.5t-45.5 10.5q-39 0 -94 -27l-22 62q73 23 117 23q59 0 101 -25.5t42 -83.5q0 -20 -13.5 -42.5t-29 -38.5t-45 -37.5 t-43 -30.5t-41.5 -26h173v-58h-253z" />
<glyph unicode="&#xbe;" horiz-adv-x="830" d="M49 323l22 62q38 -19 94 -19q31 0 50 13t19 33q0 33 -28.5 43.5t-88.5 10.5v55q58 0 83 8.5t25 36.5q0 36 -56 36q-35 0 -91 -25l-22 63q43 20 115 20q64 0 99.5 -23.5t35.5 -69.5q0 -32 -23.5 -50.5t-59.5 -22.5q37 -5 64.5 -25.5t27.5 -57.5q0 -38 -25.5 -62t-57 -32 t-69.5 -8q-69 0 -114 14zM175 0l362 629h98l-363 -629h-97zM443 144l163 190h87v-190h54v-58h-54v-86h-80v86h-145zM510 144h103v119z" />
<glyph unicode="&#xbf;" horiz-adv-x="460" d="M51 157q0 33 17 60.5t41.5 47t48.5 38t41 41t17 47.5v80h112v-85q0 -38 -16 -67.5t-39 -48.5t-46 -35t-39 -35.5t-16 -42.5q0 -37 17.5 -53.5t63.5 -16.5q29 0 80.5 11t77.5 24l18 -102q-33 -11 -87 -20.5t-89 -9.5q-30 0 -53.5 2.5t-53 12.5t-49 27t-33 49t-13.5 76z M212 537v110h120v-110h-120z" />
<glyph unicode="&#xc0;" horiz-adv-x="681" d="M29 0l263 647h116l244 -647h-139l-58 173h-231l-61 -173h-134zM240 809h113l96 -117h-78zM259 268h164l-79 239z" />
<glyph unicode="&#xc1;" horiz-adv-x="681" d="M29 0l263 647h116l244 -647h-139l-58 173h-231l-61 -173h-134zM247 692l97 117h112l-131 -117h-78zM259 268h164l-79 239z" />
<glyph unicode="&#xc2;" horiz-adv-x="681" d="M29 0l263 647h116l244 -647h-139l-58 173h-231l-61 -173h-134zM210 694l99 117h78l96 -117h-82l-53 64l-56 -64h-82zM259 268h164l-79 239z" />
<glyph unicode="&#xc3;" horiz-adv-x="681" d="M29 0l263 647h116l244 -647h-139l-58 173h-231l-61 -173h-134zM190 709q18 42 43.5 58.5t68.5 16.5q23 0 53.5 -22.5t44.5 -22.5q19 0 32.5 14.5t18.5 30.5l60 -28q-12 -37 -42 -59t-67 -22q-29 0 -58.5 22.5t-42.5 22.5q-38 0 -51 -39zM259 268h164l-79 239z" />
<glyph unicode="&#xc4;" horiz-adv-x="681" d="M29 0l263 647h116l244 -647h-139l-58 173h-231l-61 -173h-134zM216 676v93h102v-93h-102zM259 268h164l-79 239zM375 676v93h102v-93h-102z" />
<glyph unicode="&#xc5;" horiz-adv-x="681" d="M29 0l263 647h116l244 -647h-139l-58 173h-231l-61 -173h-134zM259 268h164l-79 239zM272 753q0 34 24 58t59 24t59 -23.5t24 -58.5q0 -34 -24 -58t-59 -24q-34 0 -58.5 24t-24.5 58zM313 754q0 -15 12 -28.5t30 -13.5q20 0 30.5 12t10.5 30t-11 30t-30 12q-18 0 -30 -13 t-12 -29z" />
<glyph unicode="&#xc6;" horiz-adv-x="988" d="M29 0l367 647h489v-97h-334l27 -167h286v-97h-269l33 -189h266v-97h-374l-26 173h-228l-93 -173h-144zM317 268h163l-35 240z" />
<glyph unicode="&#xc7;" horiz-adv-x="575" d="M59 323q0 71 15.5 129.5t49 106.5t94 75t143.5 27q88 0 171 -27l-39 -106q-84 36 -132 36q-92 0 -132 -61t-40 -179q0 -124 38.5 -185.5t127.5 -61.5q16 0 29.5 1.5t31.5 7.5t24.5 8t31 12.5t28.5 11.5l39 -106q-86 -31 -177 -32l-1 -5q34 0 53.5 -23.5t19.5 -49.5 q0 -55 -41.5 -86t-94.5 -31q-46 0 -104 8l24 79q64 -8 75 -8q48 0 48 36q0 20 -15 28t-65 8l14 52q-216 44 -216 335z" />
<glyph unicode="&#xc8;" horiz-adv-x="581" d="M94 0v647h384v-97h-258v-167h237v-97h-237v-189h267v-97h-393zM170 809h113l96 -117h-78z" />
<glyph unicode="&#xc9;" horiz-adv-x="581" d="M94 0v647h384v-97h-258v-167h237v-97h-237v-189h267v-97h-393zM162 677l96 117h113l-131 -117h-78z" />
<glyph unicode="&#xca;" horiz-adv-x="581" d="M94 0v647h384v-97h-258v-167h237v-97h-237v-189h267v-97h-393zM148 692l99 117h78l96 -117h-82l-53 64l-56 -64h-82z" />
<glyph unicode="&#xcb;" horiz-adv-x="581" d="M94 0v647h384v-97h-258v-167h237v-97h-237v-189h267v-97h-393zM166 676v93h102v-93h-102zM325 676v93h102v-93h-102z" />
<glyph unicode="&#xcc;" horiz-adv-x="290" d="M15 809h113l96 -117h-78zM82 0v647h126v-647h-126z" />
<glyph unicode="&#xcd;" horiz-adv-x="290" d="M46 692l96 117h113l-131 -117h-78zM82 0v647h126v-647h-126z" />
<glyph unicode="&#xce;" horiz-adv-x="290" d="M9 688l99 117h78l96 -117h-82l-53 64l-56 -64h-82zM82 0v647h126v-647h-126z" />
<glyph unicode="&#xcf;" horiz-adv-x="290" d="M17 716v93h102v-93h-102zM82 0v647h126v-647h-126zM176 716v93h102v-93h-102z" />
<glyph unicode="&#xd0;" horiz-adv-x="673" d="M29 319v87h65v241h211q160 0 234.5 -74t74.5 -247q0 -176 -73.5 -251t-235.5 -75h-211v319h-65zM220 97h94q84 0 127 48t43 180q0 74 -13 121t-40 68.5t-55 28.5t-71 7h-85v-144h101v-87h-101v-222z" />
<glyph unicode="&#xd1;" horiz-adv-x="727" d="M94 0v647h187l228 -498v498h124v-647h-189l-230 498v-498h-120zM203 708q18 42 43.5 58.5t68.5 16.5q23 0 53.5 -22.5t44.5 -22.5q19 0 32.5 14.5t18.5 30.5l60 -28q-12 -37 -42 -59t-67 -22q-29 0 -58.5 22.5t-42.5 22.5q-38 0 -51 -39z" />
<glyph unicode="&#xd2;" horiz-adv-x="725" d="M59 321q0 154 73 246.5t233 92.5q301 0 301 -339q0 -156 -71.5 -248t-230.5 -92q-305 0 -305 340zM189 321q0 -131 41.5 -187t133.5 -56q91 0 131.5 59.5t40.5 183.5q0 128 -41.5 185t-130.5 57q-90 0 -132.5 -58t-42.5 -184zM218 809h113l96 -117h-78z" />
<glyph unicode="&#xd3;" horiz-adv-x="725" d="M59 321q0 154 73 246.5t233 92.5q301 0 301 -339q0 -156 -71.5 -248t-230.5 -92q-305 0 -305 340zM189 321q0 -131 41.5 -187t133.5 -56q91 0 131.5 59.5t40.5 183.5q0 128 -41.5 185t-130.5 57q-90 0 -132.5 -58t-42.5 -184zM265 692l96 117h113l-131 -117h-78z" />
<glyph unicode="&#xd4;" horiz-adv-x="725" d="M59 321q0 154 73 246.5t233 92.5q301 0 301 -339q0 -156 -71.5 -248t-230.5 -92q-305 0 -305 340zM189 321q0 -131 41.5 -187t133.5 -56q91 0 131.5 59.5t40.5 183.5q0 128 -41.5 185t-130.5 57q-90 0 -132.5 -58t-42.5 -184zM224 692l99 117h78l96 -117h-82l-53 64 l-56 -64h-82z" />
<glyph unicode="&#xd5;" horiz-adv-x="725" d="M59 321q0 154 73 246.5t233 92.5q301 0 301 -339q0 -156 -71.5 -248t-230.5 -92q-305 0 -305 340zM189 321q0 -131 41.5 -187t133.5 -56q91 0 131.5 59.5t40.5 183.5q0 128 -41.5 185t-130.5 57q-90 0 -132.5 -58t-42.5 -184zM209 709q18 42 43.5 58.5t68.5 16.5 q23 0 53.5 -22.5t44.5 -22.5q19 0 32.5 14.5t18.5 30.5l60 -28q-12 -37 -42 -59t-67 -22q-29 0 -58.5 22.5t-42.5 22.5q-38 0 -51 -39z" />
<glyph unicode="&#xd6;" horiz-adv-x="725" d="M59 321q0 154 73 246.5t233 92.5q301 0 301 -339q0 -156 -71.5 -248t-230.5 -92q-305 0 -305 340zM189 321q0 -131 41.5 -187t133.5 -56q91 0 131.5 59.5t40.5 183.5q0 128 -41.5 185t-130.5 57q-90 0 -132.5 -58t-42.5 -184zM234 676v93h102v-93h-102zM393 676v93h102 v-93h-102z" />
<glyph unicode="&#xd7;" d="M45 94l158 158l-158 158l68 68l158 -158l158 158l68 -68l-158 -158l158 -158l-68 -68l-158 158l-158 -158z" />
<glyph unicode="&#xd8;" horiz-adv-x="725" d="M16 -1l90 106q-47 80 -47 216q0 154 73 246.5t233 92.5q107 0 178 -44l74 87l82 -75l-79 -93q46 -79 46 -214q0 -156 -71.5 -248t-230.5 -92q-109 0 -180 44l-86 -101zM189 321q0 -63 9 -108l272 318q-39 32 -106 32q-90 0 -132.5 -58t-42.5 -184zM255 108 q39 -30 109 -30q91 0 131.5 59.5t40.5 183.5q0 60 -9 105z" />
<glyph unicode="&#xd9;" horiz-adv-x="723" d="M94 239v408h126v-398q0 -100 39 -135.5t109 -35.5q135 0 135 171v398h126v-410q0 -127 -67 -191.5t-194 -64.5q-274 0 -274 258zM218 809h113l96 -117h-78z" />
<glyph unicode="&#xda;" horiz-adv-x="723" d="M94 239v408h126v-398q0 -100 39 -135.5t109 -35.5q135 0 135 171v398h126v-410q0 -127 -67 -191.5t-194 -64.5q-274 0 -274 258zM282 677l96 117h113l-131 -117h-78z" />
<glyph unicode="&#xdb;" horiz-adv-x="723" d="M94 239v408h126v-398q0 -100 39 -135.5t109 -35.5q135 0 135 171v398h126v-410q0 -127 -67 -191.5t-194 -64.5q-274 0 -274 258zM226 692l99 117h78l96 -117h-82l-53 64l-56 -64h-82z" />
<glyph unicode="&#xdc;" horiz-adv-x="723" d="M94 239v408h126v-398q0 -100 39 -135.5t109 -35.5q135 0 135 171v398h126v-410q0 -127 -67 -191.5t-194 -64.5q-274 0 -274 258zM237 676v93h102v-93h-102zM396 676v93h102v-93h-102z" />
<glyph unicode="&#xdd;" horiz-adv-x="619" d="M14 647h143l157 -248l155 248h136l-233 -356v-291h-126v287zM173 692l96 117h113l-131 -117h-78z" />
<glyph unicode="&#xde;" horiz-adv-x="600" d="M94 0v647h126v-121h101q229 0 229 -194q0 -200 -218 -200h-112v-132h-126zM220 229h104q98 0 98 103q0 60 -27.5 78.5t-75.5 18.5h-99v-200z" />
<glyph unicode="&#xdf;" horiz-adv-x="537" d="M66 0v471q0 93 47 139.5t132 46.5q35 0 65 -7t59 -23t46 -48.5t17 -78.5q0 -32 -9.5 -58t-27 -44t-31 -28.5t-33 -21t-21.5 -12.5q3 -1 31 -11.5t41 -16.5t38 -24t37.5 -37t23.5 -51t11 -71q0 -48 -17.5 -86.5t-45.5 -63t-66.5 -41t-78 -23.5t-82.5 -7l39 96 q64 0 99.5 37t35.5 90q0 20 -3 37.5t-10.5 30.5t-14 23.5t-19.5 19.5t-20.5 14t-23.5 11t-22 8t-23 6.5t-20 5.5v89q54 35 73 61q23 33 23 70q0 31 -20.5 49t-50.5 18q-66 0 -66 -88v-482h-113z" />
<glyph unicode="&#xe0;" horiz-adv-x="522" d="M43 120q0 167 251 167h38v22q0 33 -13 53.5t-52 20.5q-83 0 -167 -40l-39 93q94 34 212 34q79 0 126 -37t47 -109v-184q0 -21 8 -74t10 -66h-107l-17 46q-61 -59 -119 -59q-87 0 -132.5 34t-45.5 99zM111 647h113l96 -117h-78zM161 125q0 -51 81 -51q57 0 91 47v90h-25 q-78 0 -112.5 -21.5t-34.5 -64.5z" />
<glyph unicode="&#xe1;" horiz-adv-x="522" d="M43 120q0 167 251 167h38v22q0 33 -13 53.5t-52 20.5q-83 0 -167 -40l-39 93q94 34 212 34q79 0 126 -37t47 -109v-184q0 -21 8 -74t10 -66h-107l-17 46q-61 -59 -119 -59q-87 0 -132.5 34t-45.5 99zM155 530l96 117h113l-131 -117h-78zM161 125q0 -51 81 -51q57 0 91 47 v90h-25q-78 0 -112.5 -21.5t-34.5 -64.5z" />
<glyph unicode="&#xe2;" horiz-adv-x="522" d="M43 120q0 167 251 167h38v22q0 33 -13 53.5t-52 20.5q-83 0 -167 -40l-39 93q94 34 212 34q79 0 126 -37t47 -109v-184q0 -21 8 -74t10 -66h-107l-17 46q-61 -59 -119 -59q-87 0 -132.5 34t-45.5 99zM106 530l99 117h78l96 -117h-82l-53 64l-56 -64h-82zM161 125 q0 -51 81 -51q57 0 91 47v90h-25q-78 0 -112.5 -21.5t-34.5 -64.5z" />
<glyph unicode="&#xe3;" horiz-adv-x="522" d="M43 120q0 167 251 167h38v22q0 33 -13 53.5t-52 20.5q-83 0 -167 -40l-39 93q94 34 212 34q79 0 126 -37t47 -109v-184q0 -21 8 -74t10 -66h-107l-17 46q-61 -59 -119 -59q-87 0 -132.5 34t-45.5 99zM85 547q18 42 43.5 58.5t68.5 16.5q23 0 53.5 -22.5t44.5 -22.5 q10 0 20 5.5t15 10t15 16t12 13.5l49 -28q-12 -37 -42 -59t-67 -22q-29 0 -58.5 22.5t-42.5 22.5q-38 0 -51 -39zM161 125q0 -51 81 -51q57 0 91 47v90h-25q-78 0 -112.5 -21.5t-34.5 -64.5z" />
<glyph unicode="&#xe4;" horiz-adv-x="522" d="M43 120q0 167 251 167h38v22q0 33 -13 53.5t-52 20.5q-83 0 -167 -40l-39 93q94 34 212 34q79 0 126 -37t47 -109v-184q0 -21 8 -74t10 -66h-107l-17 46q-61 -59 -119 -59q-87 0 -132.5 34t-45.5 99zM124 528v99h103v-99h-103zM161 125q0 -51 81 -51q57 0 91 47v90h-25 q-78 0 -112.5 -21.5t-34.5 -64.5zM285 528v99h103v-99h-103z" />
<glyph unicode="&#xe5;" horiz-adv-x="522" d="M43 120q0 167 251 167h38v22q0 33 -13 53.5t-52 20.5q-83 0 -167 -40l-39 93q94 34 212 34q79 0 126 -37t47 -109v-184q0 -21 8 -74t10 -66h-107l-17 46q-61 -59 -119 -59q-87 0 -132.5 34t-45.5 99zM161 125q0 -51 81 -51q57 0 91 47v90h-25q-78 0 -112.5 -21.5 t-34.5 -64.5zM166 589q0 34 24 58t59 24t59 -23.5t24 -58.5q0 -34 -24 -58t-59 -24q-34 0 -58.5 24t-24.5 58zM207 590q0 -15 12 -28.5t30 -13.5q20 0 30.5 12t10.5 30t-11 30t-30 12q-18 0 -30 -13t-12 -29z" />
<glyph unicode="&#xe6;" horiz-adv-x="805" d="M43 120q0 167 251 167h38v22q0 33 -13 53.5t-52 20.5q-83 0 -167 -40l-39 93q94 34 212 34q84 0 134 -52q58 52 135 52q122 0 170 -69t48 -219h-314q14 -111 110 -111q62 0 140 39l37 -87q-79 -36 -185 -36q-60 0 -105.5 24t-61.5 59q-72 -83 -160 -83q-87 0 -132.5 34 t-45.5 99zM161 125q0 -51 81 -51q50 0 91 57v74h-25q-80 0 -113.5 -19t-33.5 -61zM446 266h201q-7 117 -104 117q-36 0 -65 -26.5t-32 -90.5z" />
<glyph unicode="&#xe7;" horiz-adv-x="459" d="M43 225q0 114 58 179.5t171 65.5q29 0 75 -10.5t74 -21.5l-39 -93q-76 38 -111 38q-58 0 -85 -36t-27 -122q0 -151 111 -151q42 0 116 38l39 -93q-47 -23 -133 -31l-4 -15q34 0 52 -22.5t18 -48.5q0 -55 -40 -86t-92 -31q-46 0 -104 8l24 75q64 -8 75 -8q21 0 36 10 t15 30t-16 28t-67 8l15 58q-79 18 -120 79.5t-41 151.5z" />
<glyph unicode="&#xe8;" horiz-adv-x="521" d="M43 224q0 43 10.5 83.5t34 78.5t68 61t104.5 23q117 0 166.5 -69t49.5 -216h-314q7 -55 35 -84.5t75 -29.5q65 0 143 39l37 -87q-79 -36 -188 -36q-106 0 -163.5 68t-57.5 169zM123 647h113l96 -117h-78zM162 266h205q-7 117 -108 117q-36 0 -65 -26.5t-32 -90.5z" />
<glyph unicode="&#xe9;" horiz-adv-x="521" d="M43 224q0 43 10.5 83.5t34 78.5t68 61t104.5 23q117 0 166.5 -69t49.5 -216h-314q7 -55 35 -84.5t75 -29.5q65 0 143 39l37 -87q-79 -36 -188 -36q-106 0 -163.5 68t-57.5 169zM162 266h205q-7 117 -108 117q-36 0 -65 -26.5t-32 -90.5zM185 530l96 117h113l-131 -117 h-78z" />
<glyph unicode="&#xea;" horiz-adv-x="521" d="M43 224q0 43 10.5 83.5t34 78.5t68 61t104.5 23q117 0 166.5 -69t49.5 -216h-314q7 -55 35 -84.5t75 -29.5q65 0 143 39l37 -87q-79 -36 -188 -36q-106 0 -163.5 68t-57.5 169zM132 530l99 117h78l96 -117h-82l-53 64l-56 -64h-82zM162 266h205q-7 117 -108 117 q-36 0 -65 -26.5t-32 -90.5z" />
<glyph unicode="&#xeb;" horiz-adv-x="521" d="M43 224q0 43 10.5 83.5t34 78.5t68 61t104.5 23q117 0 166.5 -69t49.5 -216h-314q7 -55 35 -84.5t75 -29.5q65 0 143 39l37 -87q-79 -36 -188 -36q-106 0 -163.5 68t-57.5 169zM139 534v93h102v-93h-102zM162 266h205q-7 117 -108 117q-36 0 -65 -26.5t-32 -90.5z M298 534v93h102v-93h-102z" />
<glyph unicode="&#xec;" horiz-adv-x="247" d="M5 647h113l96 -117h-78zM67 0v457h113v-457h-113z" />
<glyph unicode="&#xed;" horiz-adv-x="247" d="M18 530l96 117h113l-131 -117h-78zM67 0v457h113v-457h-113z" />
<glyph unicode="&#xee;" horiz-adv-x="247" d="M-5 530l99 117h78l96 -117h-82l-53 64l-56 -64h-82zM67 0v457h113v-457h-113z" />
<glyph unicode="&#xef;" horiz-adv-x="247" d="M-7 557v93h102v-93h-102zM67 0v457h113v-457h-113zM152 557v93h102v-93h-102z" />
<glyph unicode="&#xf0;" d="M46 184q0 107 51.5 164t154.5 57q30 0 68 -18.5t57 -55.5q0 145 -103 196l-78 -52l-79 46l57 39q-15 3 -51 3h-25l-37 103q126 -2 216 -35l62 44l77 -46l-58 -40q137 -90 137 -306q0 -300 -232 -300q-89 0 -153 56.5t-64 144.5zM172 184q0 -53 25.5 -80t64.5 -27 q52 0 79 33t27 126q-29 75 -107 75q-31 0 -50.5 -11.5t-27 -33t-9.5 -37t-2 -39.5v-6z" />
<glyph unicode="&#xf1;" horiz-adv-x="469" d="M54 457h104l18 -60q2 2 11 12.5t15 16t18 15.5t22.5 15.5t25.5 10t30 4.5q94 0 129.5 -47.5t35.5 -135.5v-288h-113v293q0 21 -2 34t-8.5 27.5t-21.5 22t-39 7.5q-58 0 -100 -86v-298h-113v360q0 17 -2 33t-5.5 34.5t-4.5 29.5zM99 547q18 42 43.5 58.5t68.5 16.5 q23 0 53.5 -22.5t44.5 -22.5q18 0 30 12.5t12 26.5q0 1 -0.5 3t-0.5 3l70 -28q-12 -37 -42 -59t-67 -22q-29 0 -58.5 22.5t-42.5 22.5q-38 0 -51 -39z" />
<glyph unicode="&#xf2;" horiz-adv-x="537" d="M43 231q0 105 55.5 172.5t170.5 67.5q117 0 171 -66t54 -174q0 -51 -12.5 -94t-38 -77.5t-70.5 -54t-104 -19.5q-116 0 -171 68.5t-55 176.5zM145 647h113l96 -117h-78zM159 231q0 -158 110 -158q109 0 109 158q0 83 -25.5 118t-83.5 35q-56 0 -83 -35.5t-27 -117.5z" />
<glyph unicode="&#xf3;" horiz-adv-x="537" d="M43 231q0 105 55.5 172.5t170.5 67.5q117 0 171 -66t54 -174q0 -51 -12.5 -94t-38 -77.5t-70.5 -54t-104 -19.5q-116 0 -171 68.5t-55 176.5zM159 231q0 -158 110 -158q109 0 109 158q0 83 -25.5 118t-83.5 35q-56 0 -83 -35.5t-27 -117.5zM181 530l96 117h113l-131 -117 h-78z" />
<glyph unicode="&#xf4;" horiz-adv-x="537" d="M43 231q0 105 55.5 172.5t170.5 67.5q117 0 171 -66t54 -174q0 -51 -12.5 -94t-38 -77.5t-70.5 -54t-104 -19.5q-116 0 -171 68.5t-55 176.5zM133 530l99 117h78l96 -117h-82l-53 64l-56 -64h-82zM159 231q0 -158 110 -158q109 0 109 158q0 83 -25.5 118t-83.5 35 q-56 0 -83 -35.5t-27 -117.5z" />
<glyph unicode="&#xf5;" horiz-adv-x="537" d="M43 231q0 105 55.5 172.5t170.5 67.5q117 0 171 -66t54 -174q0 -51 -12.5 -94t-38 -77.5t-70.5 -54t-104 -19.5q-116 0 -171 68.5t-55 176.5zM101 547q18 42 43.5 58.5t68.5 16.5q23 0 53.5 -22.5t44.5 -22.5q19 0 32.5 14.5t18.5 30.5l60 -28q-12 -37 -42 -59t-67 -22 q-29 0 -58.5 22.5t-42.5 22.5q-38 0 -51 -39zM159 231q0 -158 110 -158q109 0 109 158q0 83 -25.5 118t-83.5 35q-56 0 -83 -35.5t-27 -117.5z" />
<glyph unicode="&#xf6;" horiz-adv-x="537" d="M43 231q0 105 55.5 172.5t170.5 67.5q117 0 171 -66t54 -174q0 -51 -12.5 -94t-38 -77.5t-70.5 -54t-104 -19.5q-116 0 -171 68.5t-55 176.5zM141 534v93h102v-93h-102zM159 231q0 -158 110 -158q109 0 109 158q0 83 -25.5 118t-83.5 35q-56 0 -83 -35.5t-27 -117.5z M300 534v93h102v-93h-102z" />
<glyph unicode="&#xf7;" d="M45 182v76h450v-76h-450zM210 8v110h120v-110h-120zM210 322v110h120v-110h-120z" />
<glyph unicode="&#xf8;" horiz-adv-x="537" d="M16 34l55 61q-28 55 -28 136q0 105 55.5 172.5t170.5 67.5q71 0 122 -27l50 54l75 -73l-51 -56q29 -57 29 -138q0 -51 -12.5 -94t-38 -77.5t-70.5 -54t-104 -19.5q-76 0 -127 31l-51 -56zM159 231q0 -15 2 -39l165 180q-22 12 -57 12q-56 0 -83 -35.5t-27 -117.5zM209 90 q25 -17 60 -17q109 0 109 158q0 15 -2 41z" />
<glyph unicode="&#xf9;" horiz-adv-x="522" d="M66 169v288h113v-293q0 -20 2 -33.5t8 -28t21 -22t37 -7.5q54 0 96 86v298h113v-360q0 -17 2 -33t5.5 -34.5t4.5 -29.5h-104l-18 60q-2 -2 -13 -15t-19 -20.5t-21.5 -18t-30 -15.5t-34.5 -5q-89 0 -125.5 48t-36.5 135zM129 647h113l96 -117h-78z" />
<glyph unicode="&#xfa;" horiz-adv-x="522" d="M66 169v288h113v-293q0 -20 2 -33.5t8 -28t21 -22t37 -7.5q54 0 96 86v298h113v-360q0 -17 2 -33t5.5 -34.5t4.5 -29.5h-104l-18 60q-2 -2 -13 -15t-19 -20.5t-21.5 -18t-30 -15.5t-34.5 -5q-89 0 -125.5 48t-36.5 135zM171 530l96 117h113l-131 -117h-78z" />
<glyph unicode="&#xfb;" horiz-adv-x="522" d="M66 169v288h113v-293q0 -20 2 -33.5t8 -28t21 -22t37 -7.5q54 0 96 86v298h113v-360q0 -17 2 -33t5.5 -34.5t4.5 -29.5h-104l-18 60q-2 -2 -13 -15t-19 -20.5t-21.5 -18t-30 -15.5t-34.5 -5q-89 0 -125.5 48t-36.5 135zM121 530l99 117h78l96 -117h-82l-53 64l-56 -64 h-82z" />
<glyph unicode="&#xfc;" horiz-adv-x="522" d="M66 169v288h113v-293q0 -20 2 -33.5t8 -28t21 -22t37 -7.5q54 0 96 86v298h113v-360q0 -17 2 -33t5.5 -34.5t4.5 -29.5h-104l-18 60q-2 -2 -13 -15t-19 -20.5t-21.5 -18t-30 -15.5t-34.5 -5q-89 0 -125.5 48t-36.5 135zM130 534v93h102v-93h-102zM289 534v93h102v-93 h-102z" />
<glyph unicode="&#xfd;" horiz-adv-x="530" d="M36 457h121l117 -311l102 311h118l-191 -530q-23 -63 -63.5 -105.5t-110.5 -66.5l-38 93q71 19 88 65l40 106zM160 530l96 117h113l-131 -117h-78z" />
<glyph unicode="&#xfe;" horiz-adv-x="531" d="M54 -201q5 36 8.5 159t3.5 182v517h113v-260q53 73 120 73q97 0 143 -67.5t46 -171.5t-53.5 -174t-151.5 -70q-38 0 -65.5 18.5t-41.5 40.5l-18 -247h-104zM177 138q30 -64 88 -64q107 0 107 155q0 154 -94 154q-33 0 -55.5 -23t-45.5 -65v-157z" />
<glyph unicode="&#xff;" horiz-adv-x="530" d="M36 457h121l117 -311l102 311h118l-191 -530q-23 -63 -63.5 -105.5t-110.5 -66.5l-38 93q71 19 88 65l40 106zM146 534v93h102v-93h-102zM305 534v93h102v-93h-102z" />
<glyph unicode="&#x152;" horiz-adv-x="1015" d="M59 321q0 154 73 246.5t233 92.5q62 0 105 -13h442v-97h-307q41 -66 49 -167h237v-97h-236q-5 -116 -49 -189h315v-97h-434q-54 -19 -123 -19q-305 0 -305 340zM189 321q0 -131 41.5 -187t133.5 -56q90 0 126 58.5t36 184.5q0 130 -37 186t-125 56q-90 0 -132.5 -58 t-42.5 -184z" />
<glyph unicode="&#x153;" horiz-adv-x="851" d="M43 231q0 105 55.5 172.5t170.5 67.5q109 0 167 -65q55 64 152 64q122 0 170 -69t48 -219h-314q14 -111 110 -111q62 0 140 39l37 -87q-79 -36 -185 -36q-99 0 -158 67q-58 -68 -167 -68q-116 0 -171 68.5t-55 176.5zM159 231q0 -158 110 -158q109 0 109 158 q0 83 -25.5 118t-83.5 35q-56 0 -83 -35.5t-27 -117.5zM492 266h201q-7 117 -104 117q-36 0 -65 -26.5t-32 -90.5z" />
<glyph unicode="&#x178;" horiz-adv-x="619" d="M14 647h143l157 -248l155 248h136l-233 -356v-291h-126v287zM190 714v95h100v-95h-100zM346 714v95h101v-95h-101z" />
<glyph unicode="&#x2c6;" horiz-adv-x="247" d="M-13 530l99 117h78l96 -117h-82l-53 64l-56 -64h-82z" />
<glyph unicode="&#x2dc;" horiz-adv-x="247" d="M-37 547q18 42 43.5 58.5t68.5 16.5q23 0 53.5 -22.5t44.5 -22.5q19 0 32.5 14.5t18.5 30.5l60 -28q-12 -37 -42 -59t-67 -22q-29 0 -58.5 22.5t-42.5 22.5q-38 0 -51 -39z" />
<glyph unicode="&#x2000;" horiz-adv-x="417" />
<glyph unicode="&#x2001;" horiz-adv-x="835" />
<glyph unicode="&#x2002;" horiz-adv-x="417" />
<glyph unicode="&#x2003;" horiz-adv-x="835" />
<glyph unicode="&#x2004;" horiz-adv-x="278" />
<glyph unicode="&#x2005;" horiz-adv-x="208" />
<glyph unicode="&#x2006;" horiz-adv-x="139" />
<glyph unicode="&#x2007;" horiz-adv-x="139" />
<glyph unicode="&#x2008;" horiz-adv-x="104" />
<glyph unicode="&#x2009;" horiz-adv-x="167" />
<glyph unicode="&#x200a;" horiz-adv-x="46" />
<glyph unicode="&#x2010;" horiz-adv-x="350" d="M27 178v94h296v-94h-296z" />
<glyph unicode="&#x2011;" horiz-adv-x="350" d="M27 178v94h296v-94h-296z" />
<glyph unicode="&#x2012;" horiz-adv-x="350" d="M27 178v94h296v-94h-296z" />
<glyph unicode="&#x2013;" horiz-adv-x="500" d="M-1 195v86h502v-86h-502z" />
<glyph unicode="&#x2014;" horiz-adv-x="1000" d="M-1 187v94h1002v-94h-1002z" />
<glyph unicode="&#x2018;" horiz-adv-x="270" d="M45 460l99 188h76l-85 -188h-90z" />
<glyph unicode="&#x2019;" horiz-adv-x="270" d="M45 460l85 188h90l-98 -188h-77z" />
<glyph unicode="&#x201a;" horiz-adv-x="270" d="M45 -88l85 188h90l-98 -188h-77z" />
<glyph unicode="&#x201c;" horiz-adv-x="410" d="M40 460l99 188h76l-85 -188h-90zM195 460l98 188h77l-85 -188h-90z" />
<glyph unicode="&#x201d;" horiz-adv-x="410" d="M40 460l85 188h90l-98 -188h-77zM195 460l85 188h90l-99 -188h-76z" />
<glyph unicode="&#x201e;" horiz-adv-x="410" d="M40 -88l85 188h90l-98 -188h-77zM195 -88l85 188h90l-99 -188h-76z" />
<glyph unicode="&#x2022;" d="M127 324q0 60 41.5 101.5t101.5 41.5t101.5 -41.5t41.5 -101.5t-41.5 -102t-101.5 -42q-61 0 -102 41.5t-41 102.5z" />
<glyph unicode="&#x2026;" horiz-adv-x="810" d="M75 0v110h120v-110h-120zM345 0v110h120v-110h-120zM615 0v110h120v-110h-120z" />
<glyph unicode="&#x202f;" horiz-adv-x="167" />
<glyph unicode="&#x2039;" horiz-adv-x="270" d="M42 270l93 182h104l-97 -180l96 -180h-103z" />
<glyph unicode="&#x203a;" horiz-adv-x="270" d="M42 452h104l93 -182l-93 -178h-103l96 180z" />
<glyph unicode="&#x205f;" horiz-adv-x="208" />
<glyph unicode="&#x2122;" horiz-adv-x="925" d="M68 593v54h289v-54h-107v-302h-75v302h-107zM403 291v356h124l99 -263l100 263h119v-356h-74v282l-109 -282h-78l-109 282v-282h-72z" />
<glyph unicode="&#xe000;" horiz-adv-x="455" d="M0 0v455h455v-455h-455z" />
<glyph unicode="&#xfb01;" d="M11 370v87h69v13q0 49 19.5 86.5t52.5 59t62 32.5t62 17l39 -93q-62 -10 -92 -30t-30 -63v-22h84v-87h-84v-370h-113v370h-69zM357 549v98h119v-98h-119zM360 0v457h113v-457h-113z" />
<glyph unicode="&#xfb02;" d="M11 370v87h69v13q0 49 19.5 86.5t52.5 59t62 32.5t62 17l39 -93q-62 -10 -92 -30t-30 -63v-22h84v-87h-84v-370h-113v370h-69zM363 0v657h113v-657h-113z" />
</font>
</defs>
</svg>
